Завантажити та скачати торренти українською


Гонка / Rush (2013) 720р Ukr/Eng

Нові коментарі

Нова тема   Відповісти
Автор Повідомлення
Sando7 
Відео Гуртом - запис з ТБ
Відео Гуртом - запис з ТБ


З нами з: 04.05.09
Востаннє: 03.12.16
Повідомлень: 835

2014-01-30 20:26  
Гонка / Rush (2013) 720р Ukr/Eng



Жанр: екшн, біографічний, драма, спорт
Країна: США, Німеччина, Велика Британія



Кінокомпанія: Exclusive Media Group, Cross Creek Pictures, Imagine Entertainment
Режисер: Рон Говард / Ron Howard
Актори: Кріс Гемсворт / Chris Hemsworth, Даніель Брюль / Daniel Brühl, Олівія Вайлд / Olivia Wilde, Олександра Марія Лара / Alexandra Maria Lara, П'єрфранческо Фавіно / Pierfrancesco Favino, Девід Колдер / David Calder, Наталі Дормер / Natalie Dormer та інші

Сюжет:
70 -ті роки XX століття. Золотий час «Формули-1» : обтічні форми болідів, брутальні на треку й ранимі в звичайному житті гонщики, сексуальні шанувальниці, літри шампанського на фініші для переможця... Два непримиренних суперника в історії гонок - чарівний плейбой - англієць Джеймс Хант і дисциплінований перфекціоніст - австрієць Нікі Лауда - доводять себе до межі фізичної та психологічної витривалості заради тріумфу на трасі. Для них немає легких шляхів до перемоги і права на помилку. Єдиний промах гонщикам може коштувати кар'єри і навіть життя.


Тривалість: 02:02:42
Якість:
Відео:
кодек:
розмір кадру: 1280 x 534
бітрейт: 4932 кб/с

Аудіо # 1:
мова: українська
переклад: професійний дубльований
кодек: 2.0
бітрейт: 192 кб/с

Аудіо # 2:
мова: англійська
переклад: оригінал
кодек: 5.1
бітрейт: 448 кб/с

Субтитри:
мова: англійська
тип: програмні (м'які)
формат: *.srt
MediaInfo
Complete name : C:\Users\Sando7\Desktop\Rush (2013) 720р [Ukr.Eng] [Hurtom].mkv
Format : Matroska
Format version : Version 1
File size : 4.78 GiB
Duration : 2h 2mn
Overall bit rate : 5 574 Kbps
Movie name : HELLYWOOD - rip by potroks
Encoded date : UTC 2014-01-30 18:52:35
Writing application : mkvmerge v2.4.1 ('Use Me') built on Dec 5 2008 18:30:05
Writing library : libebml v0.7.7 + libmatroska v0.8.1

Video
ID : 1
Format : AVC
Format/Info : Advanced Video Codec
Format profile : [email protected]
Format settings, CABAC : Yes
Format settings, ReFrames : 9 frames
Codec ID : V_MPEG4/ISO/AVC
Duration : 2h 2mn
Bit rate : 4 932 Kbps
Width : 1 280 pixels
Height : 534 pixels
Display aspect ratio : 2.40:1
Frame rate mode : Constant
Frame rate : 23.976 fps
Color space : YUV
Chroma subsampling : 4:2:0
Bit depth : 8 bits
Scan type : Progressive
Bits/(Pixel*Frame) : 0.301
Stream size : 4.13 GiB (87%)
Title : Rush
Writing library : core 130 r2273 b3065e6
Encoding settings : cabac=1 / ref=9 / deblock=1:-3:-2 / analyse=0x3:0x133 / me=umh / subme=11 / psy=1 / psy_rd=1.06:0.00 / mixed_ref=1 / me_range=32 / chroma_me=1 / trellis=2 / 8x8dct=1 / cqm=0 / deadzone=21,11 / fast_pskip=0 / chroma_qp_offset=-2 / threads=6 / lookahead_threads=8 / sliced_threads=0 / nr=0 / decimate=0 / interlaced=0 / bluray_compat=0 / constrained_intra=0 / bframes=10 / b_pyramid=2 / b_adapt=2 / b_bias=0 / direct=3 / weightb=1 / open_gop=0 / weightp=2 / keyint=250 / keyint_min=23 / scenecut=40 / intra_refresh=0 / rc_lookahead=60 / rc=2pass / mbtree=0 / bitrate=4932 / ratetol=1.0 / qcomp=0.70 / qpmin=0 / qpmax=69 / qpstep=4 / cplxblur=20.0 / qblur=0.5 / vbv_maxrate=50000 / vbv_bufsize=62500 / nal_hrd=none / ip_ratio=1.35 / pb_ratio=1.25 / aq=1:0.70
Language : English
Default : Yes
Forced : No

Audio #1
ID : 2
Format : AC-3
Format/Info : Audio Coding 3
Mode extension : CM (complete main)
Format settings, Endianness : Big
Codec ID : A_AC3
Duration : 2h 2mn
Bit rate mode : Constant
Bit rate : 192 Kbps
Channel count : 2 channels
Channel positions : Front: L R
Sampling rate : 48.0 KHz
Bit depth : 16 bits
Compression mode : Lossy
Stream size : 169 MiB (3%)
Title : Ukr_Line
Language : Ukrainian
Default : Yes
Forced : No

Audio #2
ID : 3
Format : AC-3
Format/Info : Audio Coding 3
Mode extension : CM (complete main)
Format settings, Endianness : Big
Codec ID : A_AC3
Duration : 2h 2mn
Bit rate mode : Constant
Bit rate : 448 Kbps
Channel count : 6 channels
Channel positions : Front: L C R, Side: L R, LFE
Sampling rate : 48.0 KHz
Bit depth : 16 bits
Compression mode : Lossy
Stream size : 393 MiB (8%)
Title : Original | DD 5.1 @ 448 kbps
Language : English
Default : No
Forced : No

Text #1
ID : 4
Format : UTF-8
Codec ID : S_TEXT/UTF8
Codec ID/Info : UTF-8 Plain Text
Title : Full
Language : English
Default : Yes
Forced : No

Text #2
ID : 5
Format : UTF-8
Codec ID : S_TEXT/UTF8
Codec ID/Info : UTF-8 Plain Text
Title : SDH-Colored
Language : English
Default : No
Forced : No

Text #3
ID : 6
Format : UTF-8
Codec ID : S_TEXT/UTF8
Codec ID/Info : UTF-8 Plain Text
Title : SDH
Language : English
Default : No
Forced : No

Menu
00:00:00.000 : en:(01)00:00:00:000
00:12:17.027 : en:(02)00:12:17:027
00:21:58.150 : en:(03)00:21:58:150
00:28:46.725 : en:(04)00:28:46:725
00:40:03.192 : en:(05)00:40:03:192
00:48:00.210 : en:(06)00:48:00:210
00:59:03.873 : en:(07)00:59:03:873
01:05:39.769 : en:(08)01:05:39:769
01:19:03.947 : en:(09)01:19:03:947
01:29:31.366 : en:(10)01:29:31:366
01:42:21.635 : en:(11)01:42:21:635
01:46:42.396 : en:(12)01:46:42:396


Джерело:


 Трекер:    Зареєстрований   

Завантажити / скачати фільм українською



відео для новачків



 Зареєстрований:   2014-01-30 21:19
 Розмір:   4.78 GB 
 Оцінка фільму:   9.5/10 (Голосів: 35)
   
Інші релізи
   Одержима / Crush (2013) patriot2305  2 / 0   1.46 GB   2015-12-09 12:02 
   Гонка / Rush (2013) AVC patriot2305  2 / 0   1.92 GB   2014-01-30 23:21 
   Гонка / Rush (2013) patriot2305  6 / 0   1.45 GB   2014-01-30 22:18 
   Гонка / Rush (2013) 1080p Ukr/Eng 11FrYkT  4 / 0   9.66 GB   2014-01-30 21:58 
   Гонка / Rush (2013) Ukr/Eng patriot2305  4 / 0   2.18 GB   2014-01-30 20:50 
Avsel 
Свій


З нами з: 30.04.08
Востаннє: 18.11.16
Повідомлень: 57

2014-02-03 07:50  
Чудовий життєвий фільм.
Did Kokos 
VIP


З нами з: 27.05.13
Востаннє: 03.12.16
Повідомлень: 347

2014-07-22 11:27  
чомусь не можу знайти українського дубльованого трейлеру(
sek850 
Новенький


З нами з: 06.12.11
Востаннє: 01.06.16
Повідомлень: 12

2014-11-25 15:30  
Дуже хороший фільм. 10/10... Ніхто не знає, коли буде (чи взагалі колись буде) якісна українська доріжка?
Did Kokos 
VIP


З нами з: 27.05.13
Востаннє: 03.12.16
Повідомлень: 347

2014-11-25 20:06  
sek850
Якщо нема то вже і не буде.

OSx86 
Частий відвідувач


З нами з: 15.09.12
Востаннє: 12.11.16
Повідомлень: 39

2014-11-26 20:08  
sek850 написано:
Ніхто не знає, коли буде (чи взагалі колись буде) якісна українська доріжка?


Та його взагалі не дублювали ні в нас ні на москальщині, дякуємо за те що є)

77997997 
Поважний учасник


З нами з: 26.02.13
Востаннє: 02.12.16
Повідомлень: 210

2014-11-26 20:17  
Цитата:
Та його взагалі не дублювали ні в нас ні на москальщині, дякуємо за те що є)

А що по вашому ви чуєте під час перегляду цього фільму??? Мову оригіналу??? Чи буде якісна доріжка - невідомо, бо офіційно ліцензійні носії з цим фільмом в Україні (і в москалів) ще не вийшли...

OSx86 
Частий відвідувач


З нами з: 15.09.12
Востаннє: 12.11.16
Повідомлень: 39

2014-11-29 16:46  
77997997 написано:
А що по вашому ви чуєте під час перегляду цього фільму??? Мову оригіналу??? Чи буде якісна доріжка - невідомо, бо офіційно ліцензійні носії з цим фільмом в Україні (і в москалів) ще не вийшли...


А чуємо ми не ліцензійний переклад - про те й була мова!

Graider 
Новенький


З нами з: 01.01.11
Востаннє: 22.09.16
Повідомлень: 14

2015-05-28 18:36  
мегакіно
chubbchubbs 
Частий відвідувач


З нами з: 29.03.08
Востаннє: 30.11.16
Повідомлень: 41

2015-05-29 22:18  
Rush перекладається як порив. А гонка, що це таке? Звідкіля це слово, це щось з біології?
Ваш часовий пояс: GMT + 2 Години

Нова тема   Відповісти