Завантажити та скачати торренти українською


Робокоп / RoboCop [Unrated Director's Cut] (1987) 720p Ukr/Eng | Sub Eng

Нові коментарі

Нова тема   Відповісти
Останній раз роздавалося yuras11ii (2015-11-10)
Автор Повідомлення
braveboy 
Відео Гуртом - команда HD
Відео Гуртом - команда HD


З нами з: 15.06.10
Востаннє: 29.10.16
Повідомлень: 958

2014-01-30 02:33  

Робокоп / RoboCop [Unrated Director's Cut] (1987) 720p Ukr/Eng | Sub Eng


Робокоп / RoboCop [Unrated Director's Cut] (1987) 720p Ukr/Eng | Sub Eng


«Part man. Part machine. All cop. The future of law enforcement»


Жанр: фантастика, бойовик, триллер, драма, кримінал
Країна: США


Кінокомпанія: Metro Goldwyn Mayer
Режисер: Пол Верховен
Актори: Пітер Уеллер, Ненсі Аллен, Ден О`Херліхі, Мігель Феррер, Рей Уайз
Премія «Оскар» за особливі досягнення - «за монтаж звукових ефектів», 1988 г.

Сюжет:
Загрузлий в корупції і злочинності Детройт потребує ефективного і невразливого засобу боротьби з кримінальними елементами. Молодому конструктору Мортону потрібен тільки момент, щоб втілити в життя свою мрію - сконструювати Робота-поліцейського. Узявши тіло убитого в перестрілці поліцейського Мерфі, Мортон здійснює свою ідею, і створює робота, появу якого чекав не тільки він, але і інші, охочі використовувати машину в корисливих цілях ... Єдиний, хто бачить в роботі частинку людського - це колишній напарник Мерфі. Тепер, разом з нею, Робот-поліцейський виходить на вулиці міста, бажаючи знайти тих, хто убив Мерфі і помститися їм ...



Тривалість: 01:43:17
Якість: 720p
Відео:
кодек:
розмір кадру: 1280 x 692
бітрейт: 8173 кб/с

Аудіо # 1:
мова: українська
переклад: багатоголосий закадровий
кодек: 2.0
бітрейт: 192 кб/с

Аудіо # 2:
мова: англійська
переклад: оригінал
кодек: 5.1
бітрейт: 640 кб/с

Джерело озвучення:


Субтитри:
мова: англійська
тип: програмні (м'які)
формат: *.srt
720p by braveboy
MediaInfo
Video
ID : 1
Format : AVC
Format/Info : Advanced Video Codec
Format profile : [email protected]
Format settings, CABAC : Yes
Format settings, ReFrames : 8 frames
Codec ID : V_MPEG4/ISO/AVC
Duration : 1h 43mn
Bit rate : 8 173 Kbps
Width : 1 280 pixels
Height : 692 pixels
Display aspect ratio : 1.85:1
Frame rate mode : Constant
Frame rate : 23.976 fps
Color space : YUV
Chroma subsampling : 4:2:0
Bit depth : 8 bits
Scan type : Progressive
Bits/(Pixel*Frame) : 0.385
Stream size : 5.76 GiB (89%)
Title : RoboCop [Unrated Directors Cut] (1987) 720p bybraveboy
Writing library : core 135 r2345 f0c1c53
Encoding settings : cabac=1 / ref=8 / deblock=1:-3:-3 / analyse=0x3:0x133 / me=umh / subme=9 / psy=1 / psy_rd=0.80:0.00 / mixed_ref=1 / me_range=32 / chroma_me=1 / trellis=1 / 8x8dct=1 / cqm=0 / deadzone=21,11 / fast_pskip=0 / chroma_qp_offset=-2 / threads=3 / lookahead_threads=1 / sliced_threads=0 / nr=0 / decimate=0 / interlaced=0 / bluray_compat=0 / constrained_intra=0 / bframes=6 / b_pyramid=2 / b_adapt=2 / b_bias=0 / direct=1 / weightb=1 / open_gop=0 / weightp=2 / keyint=240 / keyint_min=23 / scenecut=40 / intra_refresh=0 / rc=2pass / mbtree=0 / bitrate=8173 / ratetol=1.0 / qcomp=0.60 / qpmin=10 / qpmax=51 / qpstep=4 / cplxblur=20.0 / qblur=0.5 / ip_ratio=1.40 / pb_ratio=1.30 / aq=1:1.00
Default : Yes
Forced : No

Audio #1
ID : 2
Format : AC-3
Format/Info : Audio Coding 3
Mode extension : CM (complete main)
Format settings, Endianness : Big
Codec ID : A_AC3
Duration : 1h 43mn
Bit rate mode : Constant
Bit rate : 192 Kbps
Channel(s) : 2 channels
Channel positions : Front: L R
Sampling rate : 48.0 KHz
Bit depth : 16 bits
Compression mode : Lossy
Stream size : 142 MiB (2%)
Title : 2.0 @ 192 kbps [1+1]
Language : Ukrainian
Default : Yes
Forced : No

Audio #2
ID : 3
Format : AC-3
Format/Info : Audio Coding 3
Mode extension : CM (complete main)
Format settings, Endianness : Big
Codec ID : A_AC3
Duration : 1h 43mn
Bit rate mode : Constant
Bit rate : 640 Kbps
Channel(s) : 6 channels
Channel positions : Front: L C R, Side: L R, LFE
Sampling rate : 48.0 KHz
Bit depth : 16 bits
Compression mode : Lossy
Stream size : 473 MiB (7%)
Title : 5.1 @ 640 kbps
Language : English
Default : No
Forced : No

Text
ID : 4
Format : UTF-8
Codec ID : S_TEXT/UTF8
Codec ID/Info : UTF-8 Plain Text
Title : Full
Language : English
Default : No
Forced : No

Menu
00:00:00.000 : en:00:00:00.000
00:06:45.113 : en:00:06:45.113
00:14:07.555 : en:00:14:07.555
00:17:32.551 : en:00:17:32.551
00:26:40.516 : en:00:26:40.516
00:34:28.024 : en:00:34:28.024
00:40:32.805 : en:00:40:32.805
00:45:15.338 : en:00:45:15.338
00:49:46.650 : en:00:49:46.650
00:57:48.131 : en:00:57:48.131
01:01:41.239 : en:01:01:41.239
01:08:25.184 : en:01:08:25.184
01:15:59.889 : en:01:15:59.889
01:22:46.545 : en:01:22:46.545
01:33:53.962 : en:01:33:53.962
01:37:04.902 : en:01:37:04.902
Скріншоти
]


Срібний реліз (на рейтинг впливає 50% завантаженого)
 Трекер:    Зареєстрований   

Завантажити / скачати фільм українською



відео для новачків



 Зареєстрований:   2014-01-30 02:35
 Розмір:   6.49 GB 
 Оцінка фільму:   9.8/10 (Голосів: 11)
   
Інші релізи
   Робокоп / RoboCop [Unrated Director's Cut] (1987) Ukr/Eng Romario_O  3 / 0   2.18 GB   2009-05-03 20:27 
sociolog_melvas 
Новенький


З нами з: 04.01.13
Востаннє: 30.11.16
Повідомлень: 10

2014-06-10 12:36  
Буль-ласка, роздайте фільм.
Ваш часовий пояс: GMT + 2 Години

Нова тема   Відповісти