Завантажити та скачати торренти українською


Керрі / Carrie (2013) 720p Ukr/Eng | Sub Ukr/Eng

Нові коментарі

Нова тема   Відповісти
Останній раз роздавалося zmiypvv (2016-12-06)

Увійдіть, щоб проголосувати
Автор Повідомлення
NeetScrool 
Відео Гуртом - фільмокрай
Відео Гуртом - фільмокрай


З нами з: 10.01.13
Востаннє: 10.12.16
Повідомлень: 2226

2014-01-29 16:04  
Керрі / Carrie (2013) 720p Ukr/Eng | Sub Ukr/Eng

Керрі / Carrie (2013) 720p Ukr/Eng | Sub Ukr/Eng


Жанр: драма, жахи
Країна: США



Кінокомпанія: Metro-Goldwyn-Mayer (MGM), Screen Gems, Misher Films
Режисер: Кімберлі Пірс
Актори: Хлоя Ґрейс Морец, Джуді Ґрір, Джуліана Мур, Енсел Ельґорт, Ґабріела Вайлд, Алекс Расселл, Портія Даблдей, Мішель Нолден, Скайлер Векслер, Конор Прайс та інші.

Прем’єра (у світі): 7.10.2013
Прем’єра (в Україні): 28.11.2013

Бюджет: $30 000 000
Збори: $82,716,354

Сюжет:
За мотивами парапсихічного роману Стівена Кінґа «Керрі». Такі, як Керрі, часто стають мішенню для злих жартів однокласників - тиха, скромна, трохи незграбна неприваблива пуританка. Але вона зовсім не така беззахисна, як здається. З дитинства дівчина наділена даром телекінезу. Тож коли ровесники готували черговий злий жарт, вони навіть не підозрювали, що покарання буде набагато страшнішим, ніж можна уявити.


Тривалість: 01:40:00
Якість: by Sensetivity
Відео:
кодек:
розмір кадру: 1280 х 544
бітрейт: ~ 8800 кб/с

Аудіо # 1:
мова: українська
переклад: професійний дубльований
кодек: 5.1
бітрейт: 448 кб/с

Аудіо # 2:
мова: англійська
переклад: оригінал
кодек: 5.1
бітрейт: 448 кб/с

Джерело озвучення:


Субтитри:
мова: українська (Форсовані та повні) / англійська (повні)
тип: програмні (м'які)
формат: *.srt
MediaInfo

General
Unique ID : 240350818045092495642034461096218978381 (0xB4D1E23E4C70E87FB5D39B999ADBE84D)
Complete name : E:\RIP\Carrie (2013) 720p [Ukr.Eng] [Hurtom].mkv
Format : Matroska
Format version : Version 4 / Version 2
File size : 6.89 GiB
Duration : 1h 39mn
Overall bit rate : 9 894 Kbps
Movie name : Керрі / Carrie (2013) | Hurtom.com
Encoded date : UTC 2014-02-04 16:45:20
Writing application : mkvmerge v6.6.0 ('The Edge Of The In Between') built on Dec 1 2013 17:55:00
Writing library : libebml v1.3.0 + libmatroska v1.4.1
Attachment : Yes

Video
ID : 1
Format : AVC
Format/Info : Advanced Video Codec
Format profile : [email protected]
Format settings, CABAC : Yes
Format settings, ReFrames : 8 frames
Codec ID : V_MPEG4/ISO/AVC
Duration : 1h 39mn
Bit rate : 8 801 Kbps
Width : 1 280 pixels
Height : 544 pixels
Display aspect ratio : 2.35:1
Frame rate mode : Constant
Frame rate : 23.976 fps
Color space : YUV
Chroma subsampling : 4:2:0
Bit depth : 8 bits
Scan type : Progressive
Bits/(Pixel*Frame) : 0.527
Stream size : 6.13 GiB (89%)
Title : by Sensetivity for Hurtom.com
Writing library : core 130 r2273 b3065e6
Encoding settings : cabac=1 / ref=8 / deblock=1:-1:-1 / analyse=0x3:0x113 / me=umh / subme=9 / psy=1 / psy_rd=1.00:0.10 / mixed_ref=1 / me_range=45 / chroma_me=1 / trellis=2 / 8x8dct=1 / cqm=0 / deadzone=21,11 / fast_pskip=1 / chroma_qp_offset=-3 / threads=6 / lookahead_threads=1 / sliced_threads=0 / nr=0 / decimate=1 / interlaced=0 / bluray_compat=0 / constrained_intra=0 / bframes=9 / b_pyramid=2 / b_adapt=2 / b_bias=0 / direct=3 / weightb=1 / open_gop=0 / weightp=2 / keyint=230 / keyint_min=23 / scenecut=40 / intra_refresh=0 / rc_lookahead=90 / rc=crf / mbtree=1 / crf=16.2 / qcomp=0.80 / qpmin=0 / qpmax=50 / qpstep=6 / ip_ratio=1.40 / aq=1:0.90
Language : English
Default : Yes
Forced : No

Audio #1
ID : 2
Format : AC-3
Format/Info : Audio Coding 3
Mode extension : CM (complete main)
Format settings, Endianness : Big
Codec ID : A_AC3
Duration : 1h 39mn
Bit rate mode : Constant
Bit rate : 448 Kbps
Channel count : 6 channels
Channel positions : Front: L C R, Side: L R, LFE
Sampling rate : 48.0 KHz
Bit depth : 16 bits
Compression mode : Lossy
Stream size : 319 MiB (5%)
Title : Дубляж | 5.1 448 кбіт/сек
Language : Ukrainian
Default : Yes
Forced : No

Audio #2
ID : 3
Format : AC-3
Format/Info : Audio Coding 3
Mode extension : CM (complete main)
Format settings, Endianness : Big
Codec ID : A_AC3
Duration : 1h 39mn
Bit rate mode : Constant
Bit rate : 448 Kbps
Channel count : 6 channels
Channel positions : Front: L C R, Side: L R, LFE
Sampling rate : 48.0 KHz
Bit depth : 16 bits
Compression mode : Lossy
Stream size : 319 MiB (5%)
Title : Оригінал | 5.1 448 кбіт/сек
Language : English
Default : No
Forced : No

Text #1
ID : 4
Format : UTF-8
Codec ID : S_TEXT/UTF8
Codec ID/Info : UTF-8 Plain Text
Title : Написи
Language : Ukrainian
Default : Yes
Forced : No

Text #2
ID : 5
Format : UTF-8
Codec ID : S_TEXT/UTF8
Codec ID/Info : UTF-8 Plain Text
Title : Повні
Language : Ukrainian
Default : No
Forced : No

Text #3
ID : 6
Format : UTF-8
Codec ID : S_TEXT/UTF8
Codec ID/Info : UTF-8 Plain Text
Title : Повні
Language : English
Default : No
Forced : No

Menu
00:04:14.545 : en:Chapter 1
00:06:37.855 : en:Chapter 2
00:10:07.648 : en:Chapter 3
00:12:03.681 : en:Chapter 4
00:14:46.176 : en:Chapter 5
00:18:50.462 : en:Chapter 6
00:23:15.060 : en:Chapter 7
00:26:51.400 : en:Chapter 8
00:30:50.974 : en:Chapter 9
00:32:27.862 : en:Chapter 10
00:36:18.092 : en:Chapter 11
00:38:20.339 : en:Chapter 12
00:41:47.755 : en:Chapter 13
00:46:22.196 : en:Chapter 14
00:51:01.850 : en:Chapter 15
00:53:09.853 : en:Chapter 16
00:55:47.677 : en:Chapter 17
01:00:52.065 : en:Chapter 18
01:04:02.338 : en:Chapter 19
01:07:03.310 : en:Chapter 20
01:09:38.381 : en:Chapter 21
01:13:05.381 : en:Chapter 22
01:18:25.158 : en:Chapter 23
01:22:46.711 : en:Chapter 24
01:25:17.862 : en:Chapter 25
01:29:25.359 : en:Chapter 26
01:33:36.402 : en:Chapter 27
Скріншоти








Джерело:
Особиста оцінка: 0 - не дивився


 Трекер:    Зареєстрований   

Завантажити / скачати фільм українською



відео для новачків



 Зареєстрований:   2014-02-04 19:23
 Розмір:   6.89 GB 
 Оцінка фільму:   9.1/10 (Голосів: 24)
   
Інші релізи
   Керрі / Carrie (2013) AngryBirdsUA  2 / 0   1.45 GB   2014-02-07 17:57 
   Керрі / Carrie (2013) 720p mini Ukr/Eng | Sub Ukr/Eng NeetScrool  1 / 0   2.41 GB   2014-02-04 19:38 
   Керрі / Carrie (2013) 1080p Ukr/Eng | Sub Ukr/Eng 11FrYkT  2 / 0   7.63 GB   2014-02-04 11:33 
   Керрі / Carrie (2013) AVC Ukr/Eng | Sub Ukr/Eng 11FrYkT  2 / 0   2.19 GB   2014-02-04 10:19 
bot 
робот


З нами з: 30.09.07
Востаннє: 26.05.05
Повідомлень: 16050

2014-01-30 16:18  
Тему перенесено з Пісочниця до форуму Анонси релізів


NeetScrool

bot 
робот


З нами з: 30.09.07
Востаннє: 26.05.05
Повідомлень: 16050

2014-01-30 17:23  
Тему перенесено з Анонси релізів до форуму Фільми в HD


NeetScrool

patriot2305 
Почесний гуртомівець


З нами з: 23.04.11
Востаннє: 09.12.16
Повідомлень: 4145

2014-01-30 17:49  
А що заважало оновити попередній реліз?
STONTS 
Озвучення


З нами з: 04.06.12
Востаннє: 09.12.16
Повідомлень: 282

2014-01-31 17:45  
NeetScrool написано:
iTunes Russia

Та невже?
Є український iTunes.

Віктор 
Відео Гуртом - субтитрування
Відео Гуртом - субтитрування


З нами з: 09.01.10
Востаннє: 09.12.16
Повідомлень: 8664

2014-01-31 17:56  
STONTS написано:
Та невже?
Є український iTunes.

То чого ж не придбали і не виклали? hdклаб купував там, де вказано, тож усі претензії можете висловити hdклаб-у.

STONTS 
Озвучення


З нами з: 04.06.12
Востаннє: 09.12.16
Повідомлень: 282

2014-01-31 18:35  
Віктор написано:
То чого ж не придбали і не виклали? hdклаб купував там, де вказано, тож усі претензії можете висловити hdклаб-у.

А чому Ви вирішили, що я висловлюю претензії? Я вдячний релізеру за те, що виклав фільм на толоку і поважаю чужу працю. Я лише уточнюю чи справді на iTunes Russia

Anubys 
VIP


З нами з: 09.11.09
Востаннє: 09.12.16
Повідомлень: 278

2014-02-01 20:51  
Велика дяка за реліз!
Gybalj 
Свій


З нами з: 14.05.09
Востаннє: 08.12.16
Повідомлень: 51

2014-02-01 22:08  
Одне питання чи не можна до фільмів з укр. дубляжем викладати семпли, щоб можна було оцінювати якість відео та звукових дорожок?Дякую!
NeetScrool 
Відео Гуртом - фільмокрай
Відео Гуртом - фільмокрай


З нами з: 10.01.13
Востаннє: 10.12.16
Повідомлень: 2226

2014-02-02 14:10  
Gybalj
З усією повагою, але я не буду викладати семпл до BDR'пів. Для цього є скріншоти.
А звук тут ліцензійний, не з кінотеатру.

babayama 
Новенький


З нами з: 13.01.14
Востаннє: 09.12.16
Повідомлень: 18

2014-02-04 18:14  
а чому дорiжка не 5.1 /448 ?
NeetScrool 
Відео Гуртом - фільмокрай
Відео Гуртом - фільмокрай


З нами з: 10.01.13
Востаннє: 10.12.16
Повідомлень: 2226

2014-02-04 19:24  
babayama написано:
а чому дорiжка не 5.1 /448 ?

Бо у мене немає машини часу.
Коли створювалася роздача 5.1 доріжки ще не було у вільному доступі.

Додано через 5 хвилин 33 секунди:

UP, дубляж з BD.

omm 
Відео Гуртом - фільмокрай
Відео Гуртом - фільмокрай


З нами з: 12.06.12
Востаннє: 09.12.16
Повідомлень: 2066

2014-02-05 18:07  
STONTS написано:
Є український iTunes.

а яка власне різниця? Іноді навіть дякувати треба російському айтюнсу за те, що вони викладають укр доріжки, яких парадокс, але на українському немає.

Ваш часовий пояс: GMT + 2 Години

Нова тема   Відповісти