Завантажити та скачати торренти українською


Сліпа удача / Runner Runner (2013) 720p-mini Ukr/Eng | Sub Ukr/Eng

Нові коментарі

Нова тема   Відповісти
Автор Повідомлення
NeetScrool 
Відео Гуртом - фільмокрай
Відео Гуртом - фільмокрай


З нами з: 10.01.13
Востаннє: 10.12.16
Повідомлень: 2226

2014-01-27 16:25  
Сліпа удача / Runner Runner (2013) 720p-mini Ukr/Eng | Sub Ukr/Eng

Сліпа удача / Runner Runner (2013) 720p-mini Ukr/Eng | Sub Ukr/Eng

Жанр: кримінальний, драма, трилер
Країна: США



Кінокомпанія: Appian Way, Double Feature Films, New Regency Pictures
Режисер: Бред Фурмен
Актори: Джастін Тімберлейк, Бен Аффлек, Джемма Артертон, Ентоні Макі, Майкл Еспер, Олівер Купер, Крістіан Джордж, Юл Васкез, Джон Герд, Джеймс Моліна

Сюжет:
Щоб оплачувати навчання в коледжі, Річі занурюється в світ азартних ігор онлайн. Коли удача зраджує йому, він відправляється на Коста-Ріку, щоб помірятися силами з справжнім асом ігрового бізнесу. Той бачить у Річі споріднену душу і вводить його в свою гру. Але коли ступінь небезпеки зростає, а ставки досягають неймовірних висот, Річі раптом чітко розуміє, що його новий бос ось-ось зробить непоправне, і намагається помінятися з ним ролями.


Тривалість: 01:31:31
Якість: (мій)
Відео:
кодек:
розмір кадру: 1280 х 536
бітрейт: 2 550 кб/с

Аудіо # 1:
мова: українська
переклад: професійний дубльований
кодек: 5.1
бітрейт: 448 кб/с

Аудіо # 2:
мова: англійська
переклад: оригінал
кодек: 5.1
бітрейт: 384 кб/с

Джерело озвучення:


Субтитри:
мова: українська
тип: програмні (м'які)
формат: *.srt

Субтитри:
мова: англійська
тип: програмні (м'які)
формат: *.srt
MediaInfo
General
Unique ID : 174968471126075055148837213480075807539 (0x83A1B3A8484D800287B992DD26464B33)
Complete name : E:\RIP\Runner Runner (2013) 720p-mini.mkv
Format : Matroska
Format version : Version 4 / Version 2
File size : 2.16 GiB
Duration : 1h 31mn
Overall bit rate : 3 378 Kbps
Movie name : Сліпа удача / Runner Runner (2013) 720p-mini
Encoded date : UTC 2014-01-27 14:06:18
Writing application : mkvmerge v6.6.0 ('The Edge Of The In Between') built on Dec 1 2013 17:55:00
Writing library : libebml v1.3.0 + libmatroska v1.4.1
Attachment : Yes

Video
ID : 1
Format : AVC
Format/Info : Advanced Video Codec
Format profile : [email protected]
Format settings, CABAC : Yes
Format settings, ReFrames : 16 frames
Codec ID : V_MPEG4/ISO/AVC
Duration : 1h 31mn
Bit rate : 2 550 Kbps
Width : 1 280 pixels
Height : 536 pixels
Display aspect ratio : 2.40:1
Frame rate mode : Constant
Frame rate : 23.976 fps
Color space : YUV
Chroma subsampling : 4:2:0
Bit depth : 8 bits
Scan type : Progressive
Bits/(Pixel*Frame) : 0.155
Stream size : 1.58 GiB (73%)
Title : 720p-mini
Writing library : core 130 r2273 b3065e6
Encoding settings : cabac=1 / ref=16 / deblock=1:-1:-1 / analyse=0x3:0x113 / me=umh / subme=9 / psy=1 / psy_rd=1.00:0.10 / mixed_ref=1 / me_range=40 / chroma_me=1 / trellis=2 / 8x8dct=1 / cqm=0 / deadzone=21,11 / fast_pskip=1 / chroma_qp_offset=-3 / threads=6 / lookahead_threads=1 / sliced_threads=0 / nr=0 / decimate=1 / interlaced=0 / bluray_compat=0 / constrained_intra=0 / bframes=16 / b_pyramid=2 / b_adapt=2 / b_bias=0 / direct=3 / weightb=1 / open_gop=0 / weightp=2 / keyint=230 / keyint_min=23 / scenecut=40 / intra_refresh=0 / rc_lookahead=50 / rc=2pass / mbtree=1 / bitrate=2550 / ratetol=1.0 / qcomp=0.85 / qpmin=0 / qpmax=50 / qpstep=6 / cplxblur=20.0 / qblur=0.5 / ip_ratio=1.40 / aq=1:1.00
Language : English
Default : Yes
Forced : No

Audio #1
ID : 2
Format : AC-3
Format/Info : Audio Coding 3
Mode extension : CM (complete main)
Format settings, Endianness : Big
Codec ID : A_AC3
Duration : 1h 31mn
Bit rate mode : Constant
Bit rate : 448 Kbps
Channel count : 6 channels
Channel positions : Front: L C R, Side: L R, LFE
Sampling rate : 48.0 KHz
Bit depth : 16 bits
Compression mode : Lossy
Stream size : 293 MiB (13%)
Title : Дубляж
Language : Ukrainian
Default : Yes
Forced : No

Audio #2
ID : 3
Format : AC-3
Format/Info : Audio Coding 3
Mode extension : CM (complete main)
Format settings, Endianness : Big
Codec ID : A_AC3
Duration : 1h 31mn
Bit rate mode : Constant
Bit rate : 384 Kbps
Channel count : 6 channels
Channel positions : Front: L C R, Side: L R, LFE
Sampling rate : 48.0 KHz
Bit depth : 16 bits
Compression mode : Lossy
Stream size : 251 MiB (11%)
Title : Оригінал
Language : English
Default : No
Forced : No

Text #1
ID : 4
Format : UTF-8
Codec ID : S_TEXT/UTF8
Codec ID/Info : UTF-8 Plain Text
Title : Повні
Language : Ukrainian
Default : No
Forced : No

Text #2
ID : 5
Format : UTF-8
Codec ID : S_TEXT/UTF8
Codec ID/Info : UTF-8 Plain Text
Title : Повні
Language : English
Default : No
Forced : No
Скріншоти







Джерело:
Особиста оцінка: 5 - позіхав


 Трекер:    Зареєстрований   

Завантажити / скачати фільм українською



відео для новачків



 Зареєстрований:   2014-01-27 16:43
 Розмір:   2.16 GB 
 Оцінка фільму:   7.6/10 (Голосів: 13)
   
Інші релізи
   Сліпа удача / Runner Runner (2013) 1080p Ukr/Eng | Sub Ukr/Eng 11FrYkT  0 / 1   11.16 GB   2014-01-24 18:18 
   Сліпа удача / Runner Runner (2013) AVC patriot2305  3 / 0   1.98 GB   2014-01-24 16:41 
   Сліпа удача / Ва-банк / Runner Runner (2013) 2xUkr/Eng | Sub Ukr/Eng Gelios  7 / 2   1.7 GB   2014-01-24 14:06 
   Сліпа удача / Runner Runner (2013) 720p Ukr/Eng | Sub Ukr/Eng 11FrYkT  0 / 2   6.67 GB   2014-01-24 10:55 
waldi-hurtom 
VIP


З нами з: 07.10.12
Востаннє: 09.12.16
Повідомлень: 613

2014-02-01 19:28  
Черговий єкшн про картярів та спецслужби, не гірше і не краще за інші. 7 з 10. Один раз можна подивитись. Дякую за реліз!
braveboy 
Відео Гуртом - команда HD
Відео Гуртом - команда HD


З нами з: 15.06.10
Востаннє: 29.10.16
Повідомлень: 958

2014-02-01 20:53  
NeetScrool написано:
тип: пререндерні

програмні (м'які)

Maters 
VIP


З нами з: 27.03.12
Востаннє: 08.12.16
Повідомлень: 1162

2014-05-11 10:25  
ну тут не так вже й про картярів ідеться, точніше таких сцен взагалі й нема, але загалом погоджуюсь, на раз глянути вистачить)
Ваш часовий пояс: GMT + 2 Години

Нова тема   Відповісти