Завантажити та скачати торренти українською


Людина-невидимка / The Invisible Man (1933) 720p Eng | sub Ukr / Eng

Нові коментарі

Нова тема   Відповісти
Автор Повідомлення
Kris 
Новенький


З нами з: 13.11.11
Востаннє: 11.12.16
Повідомлень: 5

2014-01-27 10:32  
Людина-невидимка / The Invisible Man (1933) 720p Eng | sub Ukr / Eng

Людина-невидимка / The Invisible Man (1933) 720p Eng | sub Ukr / Eng


Жанр: фантастика, жахи, драма
Країна: США / USA



Кінокомпанія: Universal Pictures
Режисер: Джеймс Уейл (James Whale)
Актори: Клод Реінс (Claude Rains), Глорія Стюарт (Gloria Stuart), Генрі Треверс (Henry Travers), Уна О'Коннор (Una O'Connor), Форрестер Харві (Forrester Harvey)

Сюжет:
Екранізація однойменного твору Герберта Уеллса здійснена режисером Джеймсом Уейлом в 1933 році.. Фільм входить в класичну серію фільмів жахів студії Universal.

Хімік поселяється в маленькому сільському готелі і здійснює перше вбивство. Виявляється, він відкрив жахливу формулу, небезпечний препарат, що робить людську плоть невидимою. Інтерес у нього був виключно науковий, але препарат мав побічний ефект, що перетворив його на божевільного. Майже відразу ж він починає шукати протиотруту, яка могла б повернути його в нормальний стан...


Тривалість: 01:11:33
Якість:
Відео:
кодек:
розмір кадру: 960 х 720
бітрейт: 5 042 кб/с

Аудіо:
мова: англійська
переклад: оригінал
кодек: 2.0
бітрейт: 1 509 кб/с

Субтитри:
мова: українська (Власний переклад з англійської)
тип: програмні (м'які)
формат: *.srt

Субтитри:
мова: англійська
тип: програмні (м'які)
формат: *.srt
Скріншоти



MediaInfo
General
Unique ID : 201994567621815094509083156040428287740 (0x97F6BD176C04FB01BF444E50123BF6FC)
Complete name : F:\CLASSIC SERIES UNIVERSAL STUDIOS HORROR FILM\the.invisible.man.1933.720p.bluray.-hd4u-Ukr_Sub.mkv
Format : Matroska
Format version : Version 4 / Version 2
File size : 3.27 GiB
Duration : 1h 11mn
Overall bit rate : 6 552 Kbps
Encoded date : UTC 2014-01-27 06:58:32
Writing application : mkvmerge v6.5.0 ('Isn't she lovely') built on Oct 20 2013 12:50:05
Writing library : libebml v1.3.0 + libmatroska v1.4.1

Video
ID : 1
Format : AVC
Format/Info : Advanced Video Codec
Format profile : [email protected]
Format settings, CABAC : Yes
Format settings, ReFrames : 5 frames
Codec ID : V_MPEG4/ISO/AVC
Duration : 1h 11mn
Bit rate : 5 042 Kbps
Width : 960 pixels
Height : 720 pixels
Display aspect ratio : 4:3
Frame rate mode : Constant
Frame rate : 23.976 fps
Color space : YUV
Chroma subsampling : 4:2:0
Bit depth : 8 bits
Scan type : Progressive
Bits/(Pixel*Frame) : 0.304
Stream size : 2.46 GiB (75%)
Writing library : core 128 r2216 198a7ea
Encoding settings : cabac=1 / ref=5 / deblock=1:0:0 / analyse=0x3:0x133 / me=umh / subme=7 / psy=1 / psy_rd=1.00:0.00 / mixed_ref=1 / me_range=16 / chroma_me=1 / trellis=1 / 8x8dct=1 / cqm=0 / deadzone=21,11 / fast_pskip=0 / chroma_qp_offset=-2 / threads=24 / lookahead_threads=4 / sliced_threads=0 / nr=0 / decimate=1 / interlaced=0 / bluray_compat=0 / constrained_intra=0 / bframes=3 / b_pyramid=2 / b_adapt=1 / b_bias=0 / direct=1 / weightb=1 / open_gop=0 / weightp=2 / keyint=250 / keyint_min=23 / scenecut=40 / intra_refresh=0 / rc_lookahead=40 / rc=2pass / mbtree=1 / bitrate=5042 / ratetol=1.0 / qcomp=0.60 / qpmin=0 / qpmax=69 / qpstep=4 / cplxblur=20.0 / qblur=0.5 / ip_ratio=1.40 / aq=1:1.00
Language : English
Default : Yes
Forced : No

Audio
ID : 2
Format :
Format/Info : Digital Theater Systems
Mode : 16
Format settings, Endianness : Big
Codec ID : A_DTS
Duration : 1h 11mn
Bit rate mode : Constant
Bit rate : 1 509 Kbps
Channel count : 2 channels
Channel positions : Front: L R
Sampling rate : 48.0 KHz
Bit depth : 24 bits
Compression mode : Lossy
Stream size : 772 MiB (23%)
Language : English
Default : Yes
Forced : No

Text #1
ID : 3
Format : UTF-8
Codec ID : S_TEXT/UTF8
Codec ID/Info : UTF-8 Plain Text
Language : Ukrainian
Default : Yes
Forced : Yes

Text #2
ID : 4
Format : UTF-8
Codec ID : S_TEXT/UTF8
Codec ID/Info : UTF-8 Plain Text
Language : English
Default : No
Forced : No

Menu
00:00:00.000 : en:00:00:00.000
00:01:20.706 : en:00:01:20.706
00:08:02.524 : en:00:08:02.524
00:11:34.152 : en:00:11:34.152
00:15:50.032 : en:00:15:50.032
00:19:33.130 : en:00:19:33.130
00:20:58.215 : en:00:20:58.215
00:23:26.030 : en:00:23:26.030
00:28:54.816 : en:00:28:54.816
00:35:37.177 : en:00:35:37.177
00:42:29.505 : en:00:42:29.505
00:51:16.824 : en:00:51:16.824
00:53:53.689 : en:00:53:53.689
00:59:55.550 : en:00:59:55.550
01:02:31.456 : en:01:02:31.456
01:04:21.816 : en:01:04:21.816
01:08:54.255 : en:01:08:54.255
01:10:52.540 : en:01:10:52.540
Джерело: PublicHD
Особиста оцінка: 10 - без зайвих вагань рекомендую всім!


Золотий реліз (завантажене не впливає на рейтинг)
 Трекер:    Зареєстрований   

Завантажити / скачати фільм українською



відео для новачків



 Зареєстрований:   2014-01-27 10:32
 Розмір:   3.27 GB 
 Оцінка фільму:   9.8/10 (Голосів: 6)
   
patriot2305 
Почесний гуртомівець


З нами з: 23.04.11
Востаннє: 11.12.16
Повідомлень: 4145

2014-01-27 20:41  
Додайте медіаінфо...
patriot2305 
Почесний гуртомівець


З нами з: 23.04.11
Востаннє: 11.12.16
Повідомлень: 4145

2014-01-28 08:47  
Тип субтитрів: "програмні (м'які)"
nass38 
Новенький


З нами з: 26.01.12
Востаннє: 03.04.15
Повідомлень: 19

2014-08-07 12:43  
станьте хтось на роздачу. будь-ласка
Ваш часовий пояс: GMT + 2 Години

Нова тема   Відповісти