Завантажити та скачати торренти українською


Великий переполох у малому Китаї / Big Trouble In Little China (1986) 720p Ukr/Eng | Sub Multi

Нові коментарі

Нова тема   Відповісти
Автор Повідомлення
BOOGud 
VIP


З нами з: 06.03.12
Востаннє: 11.11.16
Повідомлень: 907

2014-01-26 13:14  
Великий переполох у малому Китаї / Big Trouble In Little China (1986) 720p Ukr/Eng | Sub Multi

Великий переполох у малому Китаї / Big Trouble In Little China (1986) 720p Ukr/Eng | Sub Multi


достобіса інших постерів та арту(навіть більше ніж скрінів)


































































































































Жанр: бойовик, комедія, фентезі, пригодницький
Країна: США



Кінокомпанія: Кіностудія / кінокомпанія:
Режисер: Джон Карпентер /John Carpenter
Актори: Курт Расселл /Kurt Russell/, Кім Кеттролл /Kim Cattrall/, Денніс Дан /Dennis Dun/, Джеймс Хонг /James Hong/, Віктор Вонг /Victor Wong/, Кейт Бертон /Kate Burton

Сюжет:
Водій вантажівки випадково стає свідком викрадення нареченої свого друга в китайському кварталі Сан-Франциско. Виявляється, що красуню викрав китайський маг-старигань, що живе на світі вже кілька тисяч років, щоби оженитися на ній і омолодитися. Гонитви, бійки, каскад трюків і спецеффектів, певна доля іронії роблять цю пародійну феєрію надзичано захоплюючим видовищем.




Тривалість: 01:39:47
Якість:
Відео:
кодек:
розмір кадру: 1 280 х 544
бітрейт: 4 762 кб/с

Аудіо # 1:
мова: українська
переклад: двоголосий закадровий
кодек: 5.1
бітрейт: 384 кб/с

Аудіо # 2:
мова: англійська
переклад: оригінал
кодек: 5.1
бітрейт: 1 509

Джерело озвучення:


Субтитри:
мова: англійська
тип: програмні (м'які)
формат: *.ass

Субтитри:
мова: Multi (English, Dutch, Norwegian, Swedish, Finnish, Danish, Russian)
тип: програмні (м'які)
формат: *.ass
MediaInfo
General
Unique ID : 220669460500341350902080945953546902236 (0xA6036465D6C280E59EB370BA35431ADC)
Complete name : C:\Films\!720\ukr\Big.Trouble.In.Little.China.1986.720p.BluRay..Ukr.Eng.HDCLUB.mkv
Format : Matroska
Format version : Version 4 / Version 2
File size : 4.64 GiB
Duration : 1h 39mn
Overall bit rate : 6 658 Kbps
Movie name : Big Trouble In Little China (1986) ESiR - HDCLUB
Encoded date : UTC 2014-01-26 08:42:47
Writing application : mkvmerge v6.6.0 ('The Edge Of The In Between') built on Dec 1 2013 17:55:00
Writing library : libebml v1.3.0 + libmatroska v1.4.1

Video
ID : 1
Format : AVC
Format/Info : Advanced Video Codec
Format profile : [email protected]
Format settings, CABAC : Yes
Format settings, ReFrames : 12 frames
Codec ID : V_MPEG4/ISO/AVC
Duration : 1h 39mn
Bit rate : 4 762 Kbps
Width : 1 280 pixels
Height : 544 pixels
Display aspect ratio : 2.35:1
Frame rate mode : Constant
Frame rate : 23.976 fps
Color space : YUV
Chroma subsampling : 4:2:0
Bit depth : 8 bits
Scan type : Progressive
Bits/(Pixel*Frame) : 0.285
Stream size : 3.23 GiB (70%)
Title : ViDEO
Writing library : core 67 r1165 6841c5e
Encoding settings : cabac=1 / ref=12 / deblock=1:-3:-3 / analyse=0x3:0x113 / me=umh / subme=9 / psy_rd=1.0:0.0 / mixed_ref=1 / me_range=24 / chroma_me=1 / trellis=2 / 8x8dct=1 / cqm=0 / deadzone=21,11 / chroma_qp_offset=-2 / threads=6 / nr=0 / decimate=1 / mbaff=0 / bframes=4 / b_pyramid=1 / b_adapt=2 / b_bias=0 / direct=1 / wpredb=1 / keyint=250 / keyint_min=25 / scenecut=40 / rc=2pass / bitrate=4762 / ratetol=1.0 / qcomp=0.60 / qpmin=10 / qpmax=51 / qpstep=4 / cplxblur=20.0 / qblur=0.5 / ip_ratio=1.40 / pb_ratio=1.30 / aq=1:0.70
Language : English
Default : Yes
Forced : No

Audio #1
ID : 2
Format : AC-3
Format/Info : Audio Coding 3
Mode extension : CM (complete main)
Format settings, Endianness : Big
Codec ID : A_AC3
Duration : 1h 39mn
Bit rate mode : Constant
Bit rate : 384 Kbps
Channel count : 6 channels
Channel positions : Front: L C R, Side: L R, LFE
Sampling rate : 48.0 KHz
Bit depth : 16 bits
Compression mode : Lossy
Stream size : 274 MiB (6%)
Title : UKR(1+1)
Language : Ukrainian
Default : Yes
Forced : No

Audio #2
ID : 3
Format :
Format/Info : Digital Theater Systems
Mode : 16
Format settings, Endianness : Big
Codec ID : A_DTS
Duration : 1h 39mn
Bit rate mode : Constant
Bit rate : 1 509 Kbps
Channel count : 6 channels
Channel positions : Front: L C R, Side: L R, LFE
Sampling rate : 48.0 KHz
Bit depth : 24 bits
Compression mode : Lossy
Stream size : 1.05 GiB (23%)
Title : 5.1 1536 Kbps
Language : English
Default : No
Forced : No

Text #1
ID : 4
Format : ASS
Codec ID : S_TEXT/ASS
Codec ID/Info : Advanced Sub Station Alpha
Compression mode : Lossless
Language : English
Default : No
Forced : No

Text #2
ID : 5
Format : UTF-8
Codec ID : S_TEXT/UTF8
Codec ID/Info : UTF-8 Plain Text
Language : Russian
Default : No
Forced : No

Text #3
ID : 6
Format : ASS
Codec ID : S_TEXT/ASS
Codec ID/Info : Advanced Sub Station Alpha
Compression mode : Lossless
Language : Portuguese
Default : No
Forced : No

Text #4
ID : 7
Format : ASS
Codec ID : S_TEXT/ASS
Codec ID/Info : Advanced Sub Station Alpha
Compression mode : Lossless
Language : French
Default : No
Forced : No

Text #5
ID : 8
Format : ASS
Codec ID : S_TEXT/ASS
Codec ID/Info : Advanced Sub Station Alpha
Compression mode : Lossless
Language : Hungarian
Default : No
Forced : No

Text #6
ID : 9
Format : ASS
Codec ID : S_TEXT/ASS
Codec ID/Info : Advanced Sub Station Alpha
Compression mode : Lossless
Language : Norwegian
Default : No
Forced : No

Text #7
ID : 10
Format : ASS
Codec ID : S_TEXT/ASS
Codec ID/Info : Advanced Sub Station Alpha
Compression mode : Lossless
Language : Polish
Default : No
Forced : No

Text #8
ID : 11
Format : ASS
Codec ID : S_TEXT/ASS
Codec ID/Info : Advanced Sub Station Alpha
Compression mode : Lossless
Language : Serbian
Default : No
Forced : No

Text #9
ID : 12
Format : ASS
Codec ID : S_TEXT/ASS
Codec ID/Info : Advanced Sub Station Alpha
Compression mode : Lossless
Language : Spanish
Default : No
Forced : No

Text #10
ID : 13
Format : ASS
Codec ID : S_TEXT/ASS
Codec ID/Info : Advanced Sub Station Alpha
Compression mode : Lossless
Language : Swedish
Default : No
Forced : No
Скріншоти










































































Величезні подяки:

за звукозапис з ТБ - SweetN

за зведення та об'ємний звук - _oles

за український постер - Тирік

Джерело: &
Особиста оцінка: 10 - без зайвих вагань рекомендую всім!


Срібний реліз (на рейтинг впливає 50% завантаженого)
 Трекер:    Зареєстрований   

Завантажити / скачати фільм українською



відео для новачків



 Зареєстрований:   2014-01-26 17:14
 Розмір:   4.64 GB 
 Оцінка фільму:   9.2/10 (Голосів: 12)
   
bot 
робот


З нами з: 30.09.07
Востаннє: 26.05.05
Повідомлень: 16030

2014-01-26 13:15  
Тему перенесено з Фільми в HD до форуму Анонси релізів


BOOGud

bot 
робот


З нами з: 30.09.07
Востаннє: 26.05.05
Повідомлень: 16030

2014-01-26 17:13  
Тему перенесено з Анонси релізів до форуму Фільми в HD


BOOGud

Х-Хед 
VIP


З нами з: 06.05.12
Востаннє: 12.11.16
Повідомлень: 297

2014-01-29 20:05  
Що це за срібло, коли за 38 хвилин я не завантажив ніодного біта?
NeetScrool 
Відео Гуртом - фільмокрай
Відео Гуртом - фільмокрай


З нами з: 10.01.13
Востаннє: 07.12.16
Повідомлень: 2219

2014-01-29 22:07  
Х-Хед
Перевірте свій рейтинг відданого/завантаженого у профілі - при рейтингу <0.15 - одне, при >0.4 - два, при >0.6 - три, при >1.0 - п'ять одночасно.
Судячи із вашого профілю: у вас аж 11 закачок, і з них качатимуться лише 2.

Х-Хед 
VIP


З нами з: 06.05.12
Востаннє: 12.11.16
Повідомлень: 297

2014-02-01 21:55  
У мене одночасно качаються 8 торентів з цього сайту (з 10-ти активних) Цей торент був завершений 3 дні тому. Вже все окей, просто тоді видно на сервері напевне було перевантаження.

Додано через 11 хвилин 28 секунд:

Х-Хед написано:
Перевірте свій рейтинг відданого/завантаженого у профілі

Мій рейтинг UL/DL рейтинг: 0.32 Але ніколи не було 2, а завжди більше. Сьогодні оновило 3-й торент до бета версії. Швидкість цього місяця уже буде 15 Мбіт/сек, замість 6-ти. Проблем не буде, надіюсь...

Х-Хед 
VIP


З нами з: 06.05.12
Востаннє: 12.11.16
Повідомлень: 297

2014-02-10 14:05  
Уже UL/DL рейтинг: 0.57 (без бонусів: 0.49) завдяки нічній 30-ти Мбітній швидкості. Класний фільм! Легкий і природній. Дякую! Я виріс на таких фільмах. Шкода що американці тепер застосовують "25-ти кадрові ліпучки" у всіх фільмах , образно кажучи , адже там навіть у фільмах жахів не обходиться без якихось натяків споживачам купувати той чи інший фастфуд , або говорять про певну марку машини з особливою акцентуючою примочкою. А тут все чисто.
Ваш часовий пояс: GMT + 2 Години

Нова тема   Відповісти