Завантажити та скачати торренти українською


VA - Автентична музика України (8CD) (2008) [WV] | Ethno

Нові коментарі

Нова тема   Відповісти
Автор Повідомлення
ssTAss 
Модератор музики


З нами з: 05.07.08
Востаннє: 07.12.16
Повідомлень: 10947

2014-01-22 18:56  
VA - Автентична музика України (8CD) (2008) [WV] | Ethno



Стиль: Ethno
Країна: Україна
Сайти: Офіційний сайт
Видавець: Ukraїnika / UA CD-01-08/08-08
Виконавці:
вказані до кожного диску
Пісні:
    CD1 Свята ніч. Колядки та щедрівки

    Пісні:
      01. Ходила пава (2:30)
      02. Ой, учора із вечора (2:02)
      03. Меланка ходила (0:44)
      04. А в тім домку (5:01)
      05. Ой, на річці, на Йордані (0:46)
      06. Добрий вечор тобі, пан-хазяїну (2:48)
      07. Ой, рано-рано, кури попєлі (1:25)
      08. Ой, чи є вдома, Йванова жона (2:32)
      09. Щедрий вечор (1:02)
      10. Ой, говій-говій, та й на торгові (1:23)
      11. На городі, на кургані (1:03)
      12. Ой, у полі-полі (3:43)
      13. Ой, на річці, на Йорданці (1:19)
      14. Вашого двора, не минаємо (1:17)
      15. Святая Варвара (2:52)
      16. Ой, там на горі, церкву будують (1:36)
      17. Ой, з-за гіроньки (2:15)
      18. Ой, волє-волє (1:15)
      19. Ой, в неділеньку (1:43)
      20. Йтиму через поле (2:54)
      21. Колядин-колядин (1:37)
      22. Через содочок (2:27)
      23. Ой, щодрий вечор (2:03)
      24. Й у конец стола, сидить Миколай (1:24)
      25. А я щодрую, ковбаску чую (0:59)
      26. Зіронька ясна (1:40)
      27. На Йордані, тіха вода стояла (2:30)


    Тривалість: 00:52:48

    Виконавці:
    фольклорний гурт "Кралиця", м. Київ, керівник - Іван Синельников: 1-13;
    фольклорний гурт "Веснянка", м. Рівне, керівник - Віктор Ковальчук: 14-27.

    Художник - Г. Назаренко
    log
    Exact Audio Copy V1.0 beta 3 from 29. August 2011

    EAC extraction logfile from 30. December 2013, 12:02

    Various / Автентична музика України CD1: Свята ніч. Колядки та щедрівки

    Used drive : SAMSUNG CD-ROM SC-152C Adapter: 0 ID: 0

    Read mode : Secure
    Utilize accurate stream : Yes
    Defeat audio cache : Yes
    Make use of C2 pointers : No

    Read offset correction : 600
    Overread into Lead-In and Lead-Out : No
    Fill up missing offset samples with silence : Yes
    Delete leading and trailing silent blocks : No
    Null samples used in CRC calculations : Yes
    Used interface : Native Win32 interface for Win NT & 2000

    Used output format : User Defined Encoder
    Selected bitrate : 1024 kBit/s
    Quality : High
    Add ID3 tag : No
    Command line compressor : C:\Blade\Programs\wavpack-4.60.1\wavpack.exe
    Additional command line options : -hlmx2 %source% %dest%

    TOC of the extracted CD

    Track | Start | Length | Start sector | End sector
    ---------------------------------------------------------
    1 | 0:00.00 | 2:30.06 | 0 | 11255
    2 | 2:30.06 | 2:01.46 | 11256 | 20376
    3 | 4:31.52 | 0:44.05 | 20377 | 23681
    4 | 5:15.57 | 5:01.10 | 23682 | 46266
    5 | 10:16.67 | 0:46.07 | 46267 | 49723
    6 | 11:02.74 | 2:47.59 | 49724 | 62307
    7 | 13:50.58 | 1:24.65 | 62308 | 68672
    8 | 15:15.48 | 2:32.17 | 68673 | 80089
    9 | 17:47.65 | 1:01.65 | 80090 | 84729
    10 | 18:49.55 | 1:23.12 | 84730 | 90966
    11 | 20:12.67 | 1:02.38 | 90967 | 95654
    12 | 21:15.30 | 3:42.50 | 95655 | 112354
    13 | 24:58.05 | 1:18.48 | 112355 | 118252
    14 | 26:16.53 | 1:17.18 | 118253 | 124045
    15 | 27:33.71 | 2:51.65 | 124046 | 136935
    16 | 30:25.61 | 1:35.42 | 136936 | 144102
    17 | 32:01.28 | 2:14.62 | 144103 | 154214
    18 | 34:16.15 | 1:15.36 | 154215 | 159875
    19 | 35:31.51 | 1:42.67 | 159876 | 167592
    20 | 37:14.43 | 2:54.02 | 167593 | 180644
    21 | 40:08.45 | 1:36.44 | 180645 | 187888
    22 | 41:45.14 | 2:26.56 | 187889 | 198894
    23 | 44:11.70 | 2:03.18 | 198895 | 208137
    24 | 46:15.13 | 1:24.35 | 208138 | 214472
    25 | 47:39.48 | 0:58.54 | 214473 | 218876
    26 | 48:38.27 | 1:39.56 | 218877 | 226357
    27 | 50:18.08 | 2:30.05 | 226358 | 237612

    Range status and errors

    Selected range

    Filename C:\Blade\music\work\VA - 2008 - Avtentychna muzyka Ukrayiny CD1.wav

    Peak level 99.1 %
    Extraction speed 1.3 X
    Range quality 99.9 %
    Test CRC 0FEFD76D
    Copy CRC 0FEFD76D
    Copy OK

    No errors occurred

    AccurateRip summary

    Track 1 not present in database
    Track 2 not present in database
    Track 3 not present in database
    Track 4 not present in database
    Track 5 not present in database
    Track 6 not present in database
    Track 7 not present in database
    Track 8 not present in database
    Track 9 not present in database
    Track 10 not present in database
    Track 11 not present in database
    Track 12 not present in database
    Track 13 not present in database
    Track 14 not present in database
    Track 15 not present in database
    Track 16 not present in database
    Track 17 not present in database
    Track 18 not present in database
    Track 19 not present in database
    Track 20 not present in database
    Track 21 not present in database
    Track 22 not present in database
    Track 23 not present in database
    Track 24 not present in database
    Track 25 not present in database
    Track 26 not present in database
    Track 27 not present in database

    None of the tracks are present in the AccurateRip database

    End of status report

    ---- CUETools DB Plugin V2.1.3

    [CTDB TOCID: xMrPOjKkpzL0VlxqLhHkGk0qBkU-] found, Submit result: xMrPOjKkpzL0VlxqLhHkGk0qBkU- has been confirmed
    [38675421] (1/1) Accurately ripped

    ==== Log checksum 3940E6D14A62B49DCAE0E7EBBFAD6CBC965D1C9CB099C1F7A89CFA2A16AF2E6D ====
    fooCDtect
    fooCDtect - foobar2000 + auCDtect, baralgin.

    auCDtect: CD records authenticity detector, version 0.8.2
    Copyright (c) 2004 Oleg Berngardt. All rights reserved.
    Copyright (c) 2004 Alexander Djourik. All rights reserved.

    mode: 0

    ===========================================
    Track: 01 - Ходила пава
    Quality: CDDA 100%
    ===========================================
    Track: 02 - Ой, учора із вечора
    Quality: CDDA 100%
    ===========================================
    Track: 03 - Меланка ходила
    Quality: CDDA 100%
    ===========================================
    Track: 04 - А в тім домку
    Quality: CDDA 100%
    ===========================================
    Track: 05 - Ой, на річці, на Йордані
    Quality: CDDA 100%
    ===========================================
    Track: 06 - Добрий вечор тобі, пан-хазяїну
    Quality: CDDA 100%
    ===========================================
    Track: 07 - Ой, рано-рано, кури попєлі
    Quality: CDDA 100%
    ===========================================
    Track: 08 - Ой, чи є вдома, Йванова жона
    Quality: CDDA 100%
    ===========================================
    Track: 09 - Щедрий вечор
    Quality: CDDA 100%
    ===========================================
    Track: 10 - Ой, говій-говій, та й на торгові
    Quality: CDDA 100%
    ===========================================
    Track: 11 - На городі, на кургані
    Quality: CDDA 100%
    ===========================================
    Track: 12 - Ой, у полі-полі
    Quality: CDDA 100%
    ===========================================
    Track: 13 - Ой, на річці, на Йорданці
    Quality: CDDA 100%
    ===========================================
    Track: 14 - Вашого двора, не минаємо
    Quality: MPEG 97%
    ===========================================
    Track: 15 - Святая Варвара
    Quality: MPEG 99%
    ===========================================
    Track: 16 - Ой, там на горі, церкву будують
    Quality: MPEG 100%
    ===========================================
    Track: 17 - Ой, з-за гіроньки
    Quality: MPEG 97%
    ===========================================
    Track: 18 - Ой, волє-волє
    Quality: MPEG 100%
    ===========================================
    Track: 19 - Ой, в неділеньку
    Quality: MPEG 100%
    ===========================================
    Track: 20 - Йтиму через поле
    Quality: MPEG 99%
    ===========================================
    Track: 21 - Колядин-колядин
    Quality: MPEG 100%
    ===========================================
    Track: 22 - Через содочок
    Quality: MPEG 90%
    ===========================================
    Track: 23 - Ой, щодрий вечор
    Quality: MPEG 91%
    ===========================================
    Track: 24 - Й у конец стола, сидить Миколай
    Quality: MPEG 93%
    ===========================================
    Track: 25 - А я щодрую, ковбаску чую
    Quality: MPEG 93%
    ===========================================
    Track: 26 - Зіронька ясна
    Quality: MPEG 100%
    ===========================================
    Track: 27 - На Йордані, тіха вода стояла
    Quality: MPEG 90%
    ===========================================
    CD2 Весна, весняночко. Веснянки та великодні

    Пісні:
      01. Володар, володар (2:13)
      02. Виходьте по йодному (2:31)
      03. Ой, виходьте, веснянки (0:53)
      04. Ой, вийду я на полянку (0:31)
      05. Весна-красна, що ти нам принесла (1:52)
      06. Весна зіму похіліла (0:45)
      07. Бояре-бояре (1:19)
      08. Ой, весна-весна (0:51)
      09. Да пора дєвкі сіять льон (3:56)
      10. А в кривого танця (1:37)
      11. Ой, на горі церковка (1:06)
      12. Да село, наше село (0:53)
      13. Ой, гей, весна, гей, красна (0:57)
      14. Весна-весна, весняночко (0:49)
      15. Віл бутує, весну чує (2:18)
      16. Поставлю я свєчу (2:44)
      17. Ой, стрєліла стрєла (1:43)
      18. Як полетів Віктор (1:06)
      19. Ой, сніг та й метелиця (1:14)
      20. Збирайтиса, дівки-молодиці (1:47)
      21. Ой, вийду я на реченьку (2:37)
      22. Сєриє гуси (1:43)
      23. Ой, не рості, кропе (2:25)
      24. А вже недалечко (1:38)
      25. Ой, ти, весно-красна (1:06)
      26. Ой, зійшов-зійшов (1:12)


    Тривалість: 00:41:49

    Виконавці:
    фольклорний гурт села Старі коні, Зарічненського району, Рівненської області: 1;
    фольклорний гурт "Веснянка", м. Рівне, керівник - Віктор Ковальчук: 2-8, 11-22;
    фольклорний гурт "Кралиця", м. Київ, керівник - Іван Сінельников: 9, 10;
    етногурт "Сільська музика", м. Рівне, керівник - Віктор Ковальчук: 23;
    фольклорний гурт "Волиняни", м. Рівне, керівник - Людмила Гапон: 24-26.

    Художник - Г. Назаренко
    log
    Exact Audio Copy V1.0 beta 3 from 29. August 2011

    EAC extraction logfile from 30. December 2013, 23:36

    Various / Автентична музика України CD2: Весна, весняночко. Веснянки та великодні пісні

    Used drive : SAMSUNG CD-ROM SC-152C Adapter: 0 ID: 0

    Read mode : Secure
    Utilize accurate stream : Yes
    Defeat audio cache : Yes
    Make use of C2 pointers : No

    Read offset correction : 600
    Overread into Lead-In and Lead-Out : No
    Fill up missing offset samples with silence : Yes
    Delete leading and trailing silent blocks : No
    Null samples used in CRC calculations : Yes
    Used interface : Native Win32 interface for Win NT & 2000

    Used output format : User Defined Encoder
    Selected bitrate : 1024 kBit/s
    Quality : High
    Add ID3 tag : No
    Command line compressor : C:\Blade\Programs\wavpack-4.60.1\wavpack.exe
    Additional command line options : -hlmx2 %source% %dest%

    TOC of the extracted CD

    Track | Start | Length | Start sector | End sector
    ---------------------------------------------------------
    1 | 0:00.00 | 2:12.68 | 0 | 9967
    2 | 2:12.68 | 2:31.34 | 9968 | 21326
    3 | 4:44.27 | 0:52.51 | 21327 | 25277
    4 | 5:37.03 | 0:31.20 | 25278 | 27622
    5 | 6:08.23 | 1:52.27 | 27623 | 36049
    6 | 8:00.50 | 0:44.73 | 36050 | 39422
    7 | 8:45.48 | 1:19.09 | 39423 | 45356
    8 | 10:04.57 | 0:50.47 | 45357 | 49153
    9 | 10:55.29 | 3:56.20 | 49154 | 66873
    10 | 14:51.49 | 1:37.26 | 66874 | 74174
    11 | 16:29.00 | 1:06.18 | 74175 | 79142
    12 | 17:35.18 | 0:53.29 | 79143 | 83146
    13 | 18:28.47 | 0:57.30 | 83147 | 87451
    14 | 19:26.02 | 0:49.08 | 87452 | 91134
    15 | 20:15.10 | 2:17.49 | 91135 | 101458
    16 | 22:32.59 | 2:44.22 | 101459 | 113780
    17 | 25:17.06 | 1:43.08 | 113781 | 121513
    18 | 27:00.14 | 1:06.06 | 121514 | 126469
    19 | 28:06.20 | 1:14.16 | 126470 | 132035
    20 | 29:20.36 | 1:47.10 | 132036 | 140070
    21 | 31:07.46 | 2:37.36 | 140071 | 151881
    22 | 33:45.07 | 1:43.22 | 151882 | 159628
    23 | 35:28.29 | 2:25.16 | 159629 | 170519
    24 | 37:53.45 | 1:37.60 | 170520 | 177854
    25 | 39:31.30 | 1:05.42 | 177855 | 182771
    26 | 40:36.72 | 1:12.33 | 182772 | 188204

    Range status and errors

    Selected range

    Filename C:\Blade\music\work\VA - 2008 - Avtentychna muzyka Ukrayiny CD2.wav

    Peak level 100.0 %
    Extraction speed 1.3 X
    Range quality 99.9 %
    Test CRC C64D1738
    Copy CRC C64D1738
    Copy OK

    No errors occurred

    AccurateRip summary

    Track 1 not present in database
    Track 2 not present in database
    Track 3 not present in database
    Track 4 not present in database
    Track 5 not present in database
    Track 6 not present in database
    Track 7 not present in database
    Track 8 not present in database
    Track 9 not present in database
    Track 10 not present in database
    Track 11 not present in database
    Track 12 not present in database
    Track 13 not present in database
    Track 14 not present in database
    Track 15 not present in database
    Track 16 not present in database
    Track 17 not present in database
    Track 18 not present in database
    Track 19 not present in database
    Track 20 not present in database
    Track 21 not present in database
    Track 22 not present in database
    Track 23 not present in database
    Track 24 not present in database
    Track 25 not present in database
    Track 26 not present in database

    None of the tracks are present in the AccurateRip database

    End of status report

    ---- CUETools DB Plugin V2.1.3

    [CTDB TOCID: Qfhu4Vp4bsmeKL7h.guuWVYDpg8-] disk not present in database, Submit result: database access error: The request was aborted: The request was canceled.

    ==== Log checksum 8E7658F7A86A11C76A4ADCD29CDE5F4170869C3074A9F24D5F17895B6442DB0C ====
    fooCDtect
    fooCDtect - foobar2000 + auCDtect, baralgin.

    auCDtect: CD records authenticity detector, version 0.8.2
    Copyright (c) 2004 Oleg Berngardt. All rights reserved.
    Copyright (c) 2004 Alexander Djourik. All rights reserved.

    mode: 0

    ===========================================
    Track: 01 - Володар, володар
    Quality: CDDA 43%
    ===========================================
    Track: 02 - Виходьте по йодному
    Quality: CDDA 100%
    ===========================================
    Track: 03 - Ой, виходьте, веснянки
    Quality: CDDA 100%
    ===========================================
    Track: 04 - Ой, вийду я на полянку
    Quality: CDDA 100%
    ===========================================
    Track: 05 - Весна-красна, що ти нам принесла
    Quality: CDDA 100%
    ===========================================
    Track: 06 - Весна зіму похіліла
    Quality: CDDA 100%
    ===========================================
    Track: 07 - Бояре-бояре
    Quality: CDDA 100%
    ===========================================
    Track: 08 - Ой, весна-весна
    Quality: CDDA 100%
    ===========================================
    Track: 09 - Да пора дєвкі сіять льон
    Quality: CDDA 99%
    ===========================================
    Track: 10 - А в кривого танця
    Quality: CDDA 100%
    ===========================================
    Track: 11 - Ой, на горі церковка
    Quality: CDDA 99%
    ===========================================
    Track: 12 - Да село, наше село
    Quality: CDDA 100%
    ===========================================
    Track: 13 - Ой, гей, весна, гей, красна
    Quality: CDDA 100%
    ===========================================
    Track: 14 - Весна-весна, весняночко
    Quality: CDDA 100%
    ===========================================
    Track: 15 - Віл бутує, весну чує
    Quality: CDDA 100%
    ===========================================
    Track: 16 - Поставлю я свєчу
    Quality: CDDA 100%
    ===========================================
    Track: 17 - Ой, стрєліла стрєла
    Quality: CDDA 100%
    ===========================================
    Track: 18 - Як полетів Віктор
    Quality: CDDA 100%
    ===========================================
    Track: 19 - Ой, сніг та й метелиця
    Quality: CDDA 100%
    ===========================================
    Track: 20 - Збирайтиса, дівки-молодиці
    Quality: CDDA 100%
    ===========================================
    Track: 21 - Ой, вийду я на реченьку
    Quality: CDDA 100%
    ===========================================
    Track: 22 - Сєриє гуси
    Quality: CDDA 100%
    ===========================================
    Track: 23 - Ой, не рості, кропе
    Quality: CDDA 100%
    ===========================================
    Track: 24 - А вже недалечко
    Quality: CDDA 54%
    ===========================================
    Track: 25 - Ой, ти, весно-красна
    Quality: CDDA 99%
    ===========================================
    Track: 26 - Ой, зійшов-зійшов
    Quality: CDDA 100%
    ===========================================
    CD3 На Івана Купала. Купальські, русальні та петрівчані пісні

    Пісні:
      01. Ой, на Івана Купала (0:57)
      02. Ой, за валом, за валочком (1:04)
      03. Ой, у городі крокіс, крокіс (0:47)
      04. А в городі, свиня рила (1:14)
      05. На Йвана Купала, сучка в борщ упала (1:16)
      06. Ой, на Купала на Івана (1:06)
      07. Ой, ходила дівчинонька по полю (1:45)
      08. Ой, купався Іван (1:07)
      09. Проведу свою русалочку (2:17)
      10. Веду русалку (1:22)
      11. А городі береза стояла (1:51)
      12. Годі-годі, зозуля кувати (1:04)
      13. Ой, на Йвана, на Купайла (1:22)
      14. Ой, ти Купайло хорошеє (1:22)
      15. Ой, на Йвана (1:20)
      16. Ой, хотів же рак женитися (1:35)
      17. Покладу кладочку (1:19)
      18. Проведу я русалочку (1:24)
      19. А в коваліхі, собакі ліхі (0:47)
      20. На Івана, на Купайла (1:14)
      21. Нашиї хлопци, ловци-ловци (0:34)
      22. Петровочка (1:11)
      23. На Івана Купала (4:34)


    Тривалість: 00:32:30

    Виконавці:
    фольклорний гурт "Лукині роси", м. Київ: 1-10;
    фольклорний гурт "Кралиця", м. Київ, керівник - Іван Синельников: 11;
    фольклорний гурт "Веснянка", м. Рівне, керівник - Віктор Ковальчук: 12-17, 19-22;
    фольклорний гурт "Волиняни", м. Рівне, керівник - Людмила Гапон: 18;
    фольклорний гурт села Старі коні, Зарічненського району, Рівненської області: 23.

    Художник - В. Шевченко
    log
    Exact Audio Copy V1.0 beta 3 from 29. August 2011

    EAC extraction logfile from 31. December 2013, 12:17

    Various / Автентична музика України CD3: На Івана Купала. Купальські, русальні та петрівчані пісні

    Used drive : SAMSUNG CD-ROM SC-152C Adapter: 0 ID: 0

    Read mode : Secure
    Utilize accurate stream : Yes
    Defeat audio cache : Yes
    Make use of C2 pointers : No

    Read offset correction : 600
    Overread into Lead-In and Lead-Out : No
    Fill up missing offset samples with silence : Yes
    Delete leading and trailing silent blocks : No
    Null samples used in CRC calculations : Yes
    Used interface : Native Win32 interface for Win NT & 2000

    Used output format : User Defined Encoder
    Selected bitrate : 1024 kBit/s
    Quality : High
    Add ID3 tag : No
    Command line compressor : C:\Blade\Programs\wavpack-4.60.1\wavpack.exe
    Additional command line options : -hlmx2 %source% %dest%

    TOC of the extracted CD

    Track | Start | Length | Start sector | End sector
    ---------------------------------------------------------
    1 | 0:00.00 | 0:57.18 | 0 | 4292
    2 | 0:57.18 | 1:04.00 | 4293 | 9092
    3 | 2:01.18 | 0:46.50 | 9093 | 12592
    4 | 2:47.68 | 1:14.12 | 12593 | 18154
    5 | 4:02.05 | 1:16.08 | 18155 | 23862
    6 | 5:18.13 | 1:05.38 | 23863 | 28775
    7 | 6:23.51 | 1:45.08 | 28776 | 36658
    8 | 8:08.59 | 1:06.59 | 36659 | 41667
    9 | 9:15.43 | 2:16.67 | 41668 | 51934
    10 | 11:32.35 | 1:22.35 | 51935 | 58119
    11 | 12:54.70 | 1:50.69 | 58120 | 66438
    12 | 14:45.64 | 1:04.03 | 66439 | 71241
    13 | 15:49.67 | 1:22.31 | 71242 | 77422
    14 | 17:12.23 | 1:21.66 | 77423 | 83563
    15 | 18:34.14 | 1:19.40 | 83564 | 89528
    16 | 19:53.54 | 1:35.00 | 89529 | 96653
    17 | 21:28.54 | 1:18.55 | 96654 | 102558
    18 | 22:47.34 | 1:23.56 | 102559 | 108839
    19 | 24:11.15 | 0:46.53 | 108840 | 112342
    20 | 24:57.68 | 1:13.68 | 112343 | 117885
    21 | 26:11.61 | 0:34.18 | 117886 | 120453
    22 | 26:46.04 | 1:10.48 | 120454 | 125751
    23 | 27:56.52 | 4:33.52 | 125752 | 146278

    Range status and errors

    Selected range

    Filename C:\Blade\music\work\VA - 2008 - Avtentychna muzyka Ukrayiny CD3.wav

    Peak level 100.0 %
    Extraction speed 1.1 X
    Range quality 99.9 %
    Test CRC 58EC7A12
    Copy CRC 58EC7A12
    Copy OK

    No errors occurred

    AccurateRip summary

    Track 1 not present in database
    Track 2 not present in database
    Track 3 not present in database
    Track 4 not present in database
    Track 5 not present in database
    Track 6 not present in database
    Track 7 not present in database
    Track 8 not present in database
    Track 9 not present in database
    Track 10 not present in database
    Track 11 not present in database
    Track 12 not present in database
    Track 13 not present in database
    Track 14 not present in database
    Track 15 not present in database
    Track 16 not present in database
    Track 17 not present in database
    Track 18 not present in database
    Track 19 not present in database
    Track 20 not present in database
    Track 21 not present in database
    Track 22 not present in database
    Track 23 not present in database

    None of the tracks are present in the AccurateRip database

    End of status report

    ---- CUETools DB Plugin V2.1.3

    [CTDB TOCID: TZbAVKTYtJhlfLSY5ce2rEILilk-] disk not present in database, Submit result: database access error: The request was aborted: The request was canceled.

    ==== Log checksum 9746EF45CEB0312ED8F2357F132E56E25155FFD34CA1F735C24E014CD712D375 ====
    fooCDtect
    fooCDtect - foobar2000 + auCDtect, baralgin.

    auCDtect: CD records authenticity detector, version 0.8.2
    Copyright (c) 2004 Oleg Berngardt. All rights reserved.
    Copyright (c) 2004 Alexander Djourik. All rights reserved.

    mode: 0

    ===========================================
    Track: 01 - Ой, на Івана Купала
    Quality: CDDA 85%
    ===========================================
    Track: 02 - Ой, за валом, за валочком
    Quality: CDDA 42%
    ===========================================
    Track: 03 - Ой, у городі крокіс, крокіс
    Quality: CDDA 100%
    ===========================================
    Track: 04 - А в городі, свиня рила
    Quality: CDDA 86%
    ===========================================
    Track: 05 - На Йвана Купала, сучка в борщ упала
    Quality: CDDA 76%
    ===========================================
    Track: 06 - Ой, на Купала на Івана
    Quality: CDDA 100%
    ===========================================
    Track: 07 - Ой, ходила дівчинонька по полю
    Quality: CDDA 100%
    ===========================================
    Track: 08 - Ой, купався Іван
    Quality: CDDA 85%
    ===========================================
    Track: 09 - Проведу свою русалочку
    Quality: CDDA 100%
    ===========================================
    Track: 10 - Веду русалку
    Quality: CDDA 100%
    ===========================================
    Track: 11 - А городі береза стояла
    Quality: CDDA 99%
    ===========================================
    Track: 12 - Годі-годі, зозуля кувати
    Quality: CDDA 100%
    ===========================================
    Track: 13 - Ой, на Йвана, на Купайла
    Quality: CDDA 100%
    ===========================================
    Track: 14 - Ой, ти Купайло хорошеє
    Quality: CDDA 100%
    ===========================================
    Track: 15 - Ой, на Йвана
    Quality: CDDA 100%
    ===========================================
    Track: 16 - Ой, хотів же рак женитися
    Quality: CDDA 100%
    ===========================================
    Track: 17 - Покладу кладочку
    Quality: CDDA 100%
    ===========================================
    Track: 18 - Проведу я русалочку
    Quality: CDDA 99%
    ===========================================
    Track: 19 - А в коваліхі, собакі ліхі
    Quality: CDDA 99%
    ===========================================
    Track: 20 - На Івана, на Купайла
    Quality: CDDA 100%
    ===========================================
    Track: 21 - Нашиї хлопци, ловци-ловци
    Quality: CDDA 100%
    ===========================================
    Track: 22 - Петровочка
    Quality: CDDA 100%
    ===========================================
    Track: 23 - На Івана Купала
    Quality: CDDA 86%
    ===========================================
    CD4 Дівич-вечір. Весільні пісні

    Пісні:
      01. В нашого старости (0:57)
      02. Ой, бором-бором (1:29)
      03. Ой, на морі, да на озері (0:59)
      04. Благослови, Боже (0:34)
      05. Маслом косу мажуть (0:23)
      06. Мати донечці, кісоньку плела (0:36)
      07. Ой, матінка, сіра й утінка (1:40)
      08. В нашому селі, новина (0:31)
      09. Ой, ходила Манєчка (0:41)
      10. Дівич-вечір (3:05)
      11. Хрещатий барвінку (0:58)
      12. А ми вілі вілєчко (0:36)
      13. По лужочку зєлєнєнькому (1:24)
      14. Ой, коли ми Марусі, вільце вили (0:29)
      15. Ой, як тобі, моя мамцю (1:33)
      16. Розступітеся вороги (0:43)
      17. Що й у лузі, й у широкому (3:16)
      18. Ой, сосонка (2:18)
      19. Куда пішла Марусина мати (2:10)
      20. Ой, як тобі, Манєчка, не жаль буде (2:07)
      21. Давай, матьонко, повечераєм з тобою (1:12)
      22. Ой, рано-рано (1:48)
      23. А ми свєчєчку раділі (2:25)
      24. Де ти, калино, росла (2:18)
      25. Ой, брат сестру, да за стол веде (1:55)
      26. А сосонка літом і зимой зелена (1:55)
      27. За новою да свєтліцею (1:56)
      28. Вийшла Галюся (1:27)


    Тривалість: 00:41:22

    Виконавці:
    фольклорно-етнографічний ансамбль "Троян", село Люхча, Сарненський район, Рівненська область: 1, 2;
    фольклорний гурт "Веснянка", м. Рівне, керівник - Віктор Ковальчук: 3, 21, 22, 26-28;
    фольклорний гурт "Лукині роси", м. Київ: 4-20;
    фольклорний гурт "Кралиця", м. Київ: 23, 24;
    етногурт "Сільська музика", м. Рівне, керівник - Віктор Ковальчук: 25.

    Художник - Н. Ніздрань
    log
    Exact Audio Copy V1.0 beta 3 from 29. August 2011

    EAC extraction logfile from 31. December 2013, 16:18

    Various / Автентична музика України CD4: Дівич-вечір. Весільні пісні

    Used drive : SAMSUNG CD-ROM SC-152C Adapter: 0 ID: 0

    Read mode : Secure
    Utilize accurate stream : Yes
    Defeat audio cache : Yes
    Make use of C2 pointers : No

    Read offset correction : 600
    Overread into Lead-In and Lead-Out : No
    Fill up missing offset samples with silence : Yes
    Delete leading and trailing silent blocks : No
    Null samples used in CRC calculations : Yes
    Used interface : Native Win32 interface for Win NT & 2000

    Used output format : User Defined Encoder
    Selected bitrate : 1024 kBit/s
    Quality : High
    Add ID3 tag : No
    Command line compressor : C:\Blade\Programs\wavpack-4.60.1\wavpack.exe
    Additional command line options : -hlmx2 %source% %dest%

    TOC of the extracted CD

    Track | Start | Length | Start sector | End sector
    ---------------------------------------------------------
    1 | 0:00.00 | 0:56.52 | 0 | 4251
    2 | 0:56.52 | 1:29.20 | 4252 | 10946
    3 | 2:25.72 | 0:59.19 | 10947 | 15390
    4 | 3:25.16 | 0:34.25 | 15391 | 17965
    5 | 3:59.41 | 0:22.54 | 17966 | 19669
    6 | 4:22.20 | 0:35.53 | 19670 | 22347
    7 | 4:57.73 | 1:39.49 | 22348 | 29821
    8 | 6:37.47 | 0:31.00 | 29822 | 32146
    9 | 7:08.47 | 0:40.40 | 32147 | 35186
    10 | 7:49.12 | 3:04.59 | 35187 | 49045
    11 | 10:53.71 | 0:58.01 | 49046 | 53396
    12 | 11:51.72 | 0:35.49 | 53397 | 56070
    13 | 12:27.46 | 1:23.40 | 56071 | 62335
    14 | 13:51.11 | 0:28.55 | 62336 | 64490
    15 | 14:19.66 | 1:33.28 | 64491 | 71493
    16 | 15:53.19 | 0:42.51 | 71494 | 74694
    17 | 16:35.70 | 3:16.00 | 74695 | 89394
    18 | 19:51.70 | 2:17.57 | 89395 | 99726
    19 | 22:09.52 | 2:10.12 | 99727 | 109488
    20 | 24:19.64 | 2:07.19 | 109489 | 119032
    21 | 26:27.08 | 1:11.68 | 119033 | 124425
    22 | 27:39.01 | 1:48.04 | 124426 | 132529
    23 | 29:27.05 | 2:25.25 | 132530 | 143429
    24 | 31:52.30 | 2:17.48 | 143430 | 153752
    25 | 34:10.03 | 1:54.70 | 153753 | 162372
    26 | 36:04.73 | 1:54.59 | 162373 | 170981
    27 | 37:59.57 | 1:55.50 | 170982 | 179656
    28 | 39:55.32 | 1:26.42 | 179657 | 186148

    Range status and errors

    Selected range

    Filename C:\Blade\music\work\VA - 2008 - Avtentychna muzyka Ukrayiny CD4.wav

    Peak level 100.0 %
    Extraction speed 1.3 X
    Range quality 99.9 %
    Test CRC 7302464A
    Copy CRC 7302464A
    Copy OK

    No errors occurred

    AccurateRip summary

    Track 1 not present in database
    Track 2 not present in database
    Track 3 not present in database
    Track 4 not present in database
    Track 5 not present in database
    Track 6 not present in database
    Track 7 not present in database
    Track 8 not present in database
    Track 9 not present in database
    Track 10 not present in database
    Track 11 not present in database
    Track 12 not present in database
    Track 13 not present in database
    Track 14 not present in database
    Track 15 not present in database
    Track 16 not present in database
    Track 17 not present in database
    Track 18 not present in database
    Track 19 not present in database
    Track 20 not present in database
    Track 21 not present in database
    Track 22 not present in database
    Track 23 not present in database
    Track 24 not present in database
    Track 25 not present in database
    Track 26 not present in database
    Track 27 not present in database
    Track 28 not present in database

    None of the tracks are present in the AccurateRip database

    End of status report

    ---- CUETools DB Plugin V2.1.3

    [CTDB TOCID: HxeUVk9DP9grzb2VZ2ksvgR4fAg-] disk not present in database, Submit result: database access error: The operation has timed out

    ==== Log checksum 5514EA0251EDE6F878B91F5473ACB64A5336770CEEA5CBE58003979A1EB240BF ====
    fooCDtect
    fooCDtect - foobar2000 + auCDtect, baralgin.

    auCDtect: CD records authenticity detector, version 0.8.2
    Copyright (c) 2004 Oleg Berngardt. All rights reserved.
    Copyright (c) 2004 Alexander Djourik. All rights reserved.

    mode: 0

    ===========================================
    Track: 01 - В нашого старости
    Quality: CDDA 99%
    ===========================================
    Track: 02 - Ой, бором-бором
    Quality: CDDA 100%
    ===========================================
    Track: 03 - Ой, на морі, да на озері
    Quality: CDDA 100%
    ===========================================
    Track: 04 - Благослови, Боже
    Quality: MPEG 90%
    ===========================================
    Track: 05 - Маслом косу мажуть
    Quality: CDDA 99%
    ===========================================
    Track: 06 - Мати донечці, кісоньку плела
    Quality: MPEG 89%
    ===========================================
    Track: 07 - Ой, матінка, сіра й утінка
    Quality: CDDA 62%
    ===========================================
    Track: 08 - В нашому селі, новина
    Quality: CDDA 43%
    ===========================================
    Track: 09 - Ой, ходила Манєчка
    Quality: CDDA 100%
    ===========================================
    Track: 10 - Дівич-вечір
    Quality: CDDA 54%
    ===========================================
    Track: 11 - Хрещатий барвінку
    Quality: CDDA 76%
    ===========================================
    Track: 12 - А ми вілі вілєчко
    Quality: CDDA 76%
    ===========================================
    Track: 13 - По лужочку зєлєнєнькому
    Quality: CDDA 54%
    ===========================================
    Track: 14 - Ой, коли ми Марусі, вільце вили
    Quality: CDDA 100%
    ===========================================
    Track: 15 - Ой, як тобі, моя мамцю
    Quality: CDDA 49%
    ===========================================
    Track: 16 - Розступітеся вороги
    Quality: CDDA 43%
    ===========================================
    Track: 17 - Що й у лузі, й у широкому
    Quality: CDDA 42%
    ===========================================
    Track: 18 - Ой, сосонка
    Quality: CDDA 49%
    ===========================================
    Track: 19 - Куда пішла Марусина мати
    Quality: CDDA 54%
    ===========================================
    Track: 20 - Ой, як тобі, Манєчка, не жаль буде
    Quality: MPEG 80%
    ===========================================
    Track: 21 - Давай, матьонко, повечераєм з тобою
    Quality: CDDA 99%
    ===========================================
    Track: 22 - Ой, рано-рано
    Quality: CDDA 100%
    ===========================================
    Track: 23 - А ми свєчєчку раділі
    Quality: CDDA 100%
    ===========================================
    Track: 24 - Де ти, калино, росла
    Quality: CDDA 100%
    ===========================================
    Track: 25 - Ой, брат сестру, да за стол веде
    Quality: CDDA 100%
    ===========================================
    Track: 26 - А сосонка літом і зимой зелена
    Quality: CDDA 100%
    ===========================================
    Track: 27 - За новою да свєтліцею
    Quality: CDDA 100%
    ===========================================
    Track: 28 - Вийшла Галюся
    Quality: CDDA 100%
    ===========================================
    CD5 Ой, заграли музиченьки. Троїсті музики

    Пісні:
      01. Поліська полька (1:35)
      02. Полька 'Із городу бульбу перла' (1:26)
      03. Полька (1:50)
      04. Вальс (2:15)
      05. Полька (1:56)
      06. Оберек (2:20)
      07. Дрібненька полька (1:20)
      08. Оберек (1:12)
      09. Полька 'Рухля' (1:26)
      10. Полька (2:30)
      11. Марш (1:38)
      12. Як дівчинонька по базарчику йшла (2:02)
      13. Мушнівська полька (1:26)
      14. Полька 'Капуста' (1:51)
      15. Вальс (2:06)
      16. Блажовська полька (1:56)
      17. Полька (3:14)
      18. Нареченька (1:49)
      19. Полька 'Субота' (2:01)
      20. Мушнівська полька (1:39)
      21. А ця полька дрібно скаче (1:36)
      22. Полька 'Гоп ся сюся' (0:50)
      23. Ойра (1:58)
      24. Храпиньські польки (1:43)
      25. Коробочка (1:24)


    Тривалість: 00:45:03

    Виконавці:
    Микола Тотовицький: 1, 2;
    етногурт "Сільська музика", м. Рівне, керівник - Віктор Ковальчук: 3-11;
    фольклорний гурт "Веснянка", м. Рівне, керівник - Віктор Ковальчук: 12-25.

    Художник - В. Шевченко
    log
    Exact Audio Copy V1.0 beta 3 from 29. August 2011

    EAC extraction logfile from 31. December 2013, 23:18

    Various / Автентична музика України CD5: Ой, заграли музиченьки. Троїсті музики

    Used drive : SAMSUNG CD-ROM SC-152C Adapter: 0 ID: 0

    Read mode : Secure
    Utilize accurate stream : Yes
    Defeat audio cache : Yes
    Make use of C2 pointers : No

    Read offset correction : 600
    Overread into Lead-In and Lead-Out : No
    Fill up missing offset samples with silence : Yes
    Delete leading and trailing silent blocks : No
    Null samples used in CRC calculations : Yes
    Used interface : Native Win32 interface for Win NT & 2000

    Used output format : User Defined Encoder
    Selected bitrate : 1024 kBit/s
    Quality : High
    Add ID3 tag : No
    Command line compressor : C:\Blade\Programs\wavpack-4.60.1\wavpack.exe
    Additional command line options : -hlmx2 %source% %dest%

    TOC of the extracted CD

    Track | Start | Length | Start sector | End sector
    ---------------------------------------------------------
    1 | 0:00.00 | 1:35.37 | 0 | 7161
    2 | 1:35.37 | 1:25.70 | 7162 | 13606
    3 | 3:01.32 | 1:50.32 | 13607 | 21888
    4 | 4:51.64 | 2:15.04 | 21889 | 32017
    5 | 7:06.68 | 1:56.25 | 32018 | 40742
    6 | 9:03.18 | 2:20.32 | 40743 | 51274
    7 | 11:23.50 | 1:20.18 | 51275 | 57292
    8 | 12:43.68 | 1:12.09 | 57293 | 62701
    9 | 13:56.02 | 1:25.71 | 62702 | 69147
    10 | 15:21.73 | 2:30.34 | 69148 | 80431
    11 | 17:52.32 | 1:37.62 | 80432 | 87768
    12 | 19:30.19 | 2:01.74 | 87769 | 96917
    13 | 21:32.18 | 1:25.42 | 96918 | 103334
    14 | 22:57.60 | 1:51.08 | 103335 | 111667
    15 | 24:48.68 | 2:05.58 | 111668 | 121100
    16 | 26:54.51 | 1:55.47 | 121101 | 129772
    17 | 28:50.23 | 3:14.27 | 129773 | 144349
    18 | 32:04.50 | 1:49.02 | 144350 | 152526
    19 | 33:53.52 | 2:00.52 | 152527 | 161578
    20 | 35:54.29 | 1:38.60 | 161579 | 168988
    21 | 37:33.14 | 1:35.48 | 168989 | 176161
    22 | 39:08.62 | 0:50.11 | 176162 | 179922
    23 | 39:58.73 | 1:58.01 | 179923 | 188773
    24 | 41:56.74 | 1:42.38 | 188774 | 196461
    25 | 43:39.37 | 1:23.62 | 196462 | 202748

    Range status and errors

    Selected range

    Filename C:\Blade\music\work\VA - 2008 - Avtentychna muzyka Ukrayiny CD5.wav

    Peak level 100.0 %
    Extraction speed 1.2 X
    Range quality 99.9 %
    Test CRC F5B34AA3
    Copy CRC F5B34AA3
    Copy OK

    No errors occurred

    AccurateRip summary

    Track 1 not present in database
    Track 2 not present in database
    Track 3 not present in database
    Track 4 not present in database
    Track 5 not present in database
    Track 6 not present in database
    Track 7 not present in database
    Track 8 not present in database
    Track 9 not present in database
    Track 10 not present in database
    Track 11 not present in database
    Track 12 not present in database
    Track 13 not present in database
    Track 14 not present in database
    Track 15 not present in database
    Track 16 not present in database
    Track 17 not present in database
    Track 18 not present in database
    Track 19 not present in database
    Track 20 not present in database
    Track 21 not present in database
    Track 22 not present in database
    Track 23 not present in database
    Track 24 not present in database
    Track 25 not present in database

    None of the tracks are present in the AccurateRip database

    End of status report

    ---- CUETools DB Plugin V2.1.3

    [CTDB TOCID: Saui_S1vXbkvyEyC95VNlUT4zKg-] disk not present in database, Submit result: database access error: The request was aborted: The request was canceled.

    ==== Log checksum 984309D942CDE1350567B6C01D72F5AB93F3A95D6B4B76AC8147B3B5C139463C ====
    fooCDtect
    fooCDtect - foobar2000 + auCDtect, baralgin.

    auCDtect: CD records authenticity detector, version 0.8.2
    Copyright (c) 2004 Oleg Berngardt. All rights reserved.
    Copyright (c) 2004 Alexander Djourik. All rights reserved.

    mode: 0

    ===========================================
    Track: 01 - Поліська полька
    Quality: CDDA 99%
    ===========================================
    Track: 02 - Полька 'Із городу бульбу перла'
    Quality: CDDA 100%
    ===========================================
    Track: 03 - Полька
    Quality: CDDA 100%
    ===========================================
    Track: 04 - Вальс
    Quality: CDDA 86%
    ===========================================
    Track: 05 - Полька
    Quality: CDDA 100%
    ===========================================
    Track: 06 - Оберек
    Quality: CDDA 100%
    ===========================================
    Track: 07 - Дрібненька полька
    Quality: CDDA 99%
    ===========================================
    Track: 08 - Оберек
    Quality: CDDA 100%
    ===========================================
    Track: 09 - Полька 'Рухля'
    Quality: CDDA 100%
    ===========================================
    Track: 10 - Полька
    Quality: CDDA 100%
    ===========================================
    Track: 11 - Марш
    Quality: CDDA 100%
    ===========================================
    Track: 12 - Як дівчинонька по базарчику йшла
    Quality: MPEG 95%
    ===========================================
    Track: 13 - Мушнівська полька
    Quality: MPEG 95%
    ===========================================
    Track: 14 - Полька 'Капуста'
    Quality: MPEG 95%
    ===========================================
    Track: 15 - Вальс
    Quality: MPEG 95%
    ===========================================
    Track: 16 - Блажовська полька
    Quality: MPEG 95%
    ===========================================
    Track: 17 - Полька
    Quality: MPEG 95%
    ===========================================
    Track: 18 - Нареченька
    Quality: MPEG 95%
    ===========================================
    Track: 19 - Полька 'Субота'
    Quality: MPEG 95%
    ===========================================
    Track: 20 - Мушнівська полька
    Quality: MPEG 95%
    ===========================================
    Track: 21 - А ця полька дрібно скаче
    Quality: CDDA 100%
    ===========================================
    Track: 22 - Полька 'Гоп ся сюся'
    Quality: MPEG 95%
    ===========================================
    Track: 23 - Ойра
    Quality: MPEG 95%
    ===========================================
    Track: 24 - Храпиньські польки
    Quality: MPEG 95%
    ===========================================
    Track: 25 - Коробочка
    Quality: CDDA 100%
    ===========================================
    CD6 А у полі річка. Старовинні українські канти і танці

    Пісні:
      01. Сюїта танців з Бориспільщини (4:05)
      02. Танец (з табулатури Войцеха Длугорая) (0:53)
      03. Бистренькії річеньки (3:51)
      04. Кто кріпко на Бога уповая (Феофан Прокопович) (2:41)
      05. Русинський танець (3:08)
      06. Ой, біда, біда мні, чайці-небозі (Іван Мазепа) (4:40)
      07. Танец (з табулатури Войцеха Длугорая) (1:58)
      08. Сизий голубочку (2:41)
      09. Ах, ушли мої літа (7:29)
      10. Ой ти, птичко жовтобока (Григорій Сковорода) (2:02)
      11. Гайдуцький танець (1:36)
      12. Козацький танець (1:25)
      13. Розлилися води (4:03)
      14. Ой, долом-долом; Зійду я на гору (3:54)
      15. Заключний танець з 'Вертепу' (2:06)
      16. Кант (1:11)
      17. А у полі річка (3:26)
      18. Ох, несносним жалем (2:29)
      19. Ой, перестань, мій наймильший, до мене ходити (3:25)


    Тривалість: 00:57:02

    Виконавці:
    Ансамбль Давньої Музики під керівництвом Костянтина Чечені,
    солісти:
    3, 4, 6 - Ніна Матвієнко,
    8-10, 13, 17-19 - Надія Боянівська.

    Художник - Н. Ніздрань
    log
    Exact Audio Copy V1.0 beta 3 from 29. August 2011

    EAC extraction logfile from 1. January 2014, 19:42

    Various / Автентична музика України CD6: А у полі річка. Старовинні українські канти і танці

    Used drive : SAMSUNG CD-ROM SC-152C Adapter: 0 ID: 0

    Read mode : Secure
    Utilize accurate stream : Yes
    Defeat audio cache : Yes
    Make use of C2 pointers : No

    Read offset correction : 600
    Overread into Lead-In and Lead-Out : No
    Fill up missing offset samples with silence : Yes
    Delete leading and trailing silent blocks : No
    Null samples used in CRC calculations : Yes
    Used interface : Native Win32 interface for Win NT & 2000

    Used output format : User Defined Encoder
    Selected bitrate : 1024 kBit/s
    Quality : High
    Add ID3 tag : No
    Command line compressor : C:\Blade\Programs\wavpack-4.60.1\wavpack.exe
    Additional command line options : -hlmx2 %source% %dest%

    TOC of the extracted CD

    Track | Start | Length | Start sector | End sector
    ---------------------------------------------------------
    1 | 0:00.00 | 4:04.53 | 0 | 18352
    2 | 4:04.53 | 0:53.27 | 18353 | 22354
    3 | 4:58.05 | 3:50.43 | 22355 | 39647
    4 | 8:48.48 | 2:40.48 | 39648 | 51695
    5 | 11:29.21 | 3:08.06 | 51696 | 65801
    6 | 14:37.27 | 4:39.55 | 65802 | 86781
    7 | 19:17.07 | 1:57.70 | 86782 | 95626
    8 | 21:15.02 | 2:40.56 | 95627 | 107682
    9 | 23:55.58 | 7:28.64 | 107683 | 141346
    10 | 31:24.47 | 2:01.45 | 141347 | 150466
    11 | 33:26.17 | 1:35.48 | 150467 | 157639
    12 | 35:01.65 | 1:25.25 | 157640 | 164039
    13 | 36:27.15 | 4:02.54 | 164040 | 182243
    14 | 40:29.69 | 3:54.26 | 182244 | 199819
    15 | 44:24.20 | 2:06.20 | 199820 | 209289
    16 | 46:30.40 | 1:10.66 | 209290 | 214605
    17 | 47:41.31 | 3:26.22 | 214606 | 230077
    18 | 51:07.53 | 2:29.16 | 230078 | 241268
    19 | 53:36.69 | 3:24.67 | 241269 | 256635

    Range status and errors

    Selected range

    Filename C:\Blade\music\work\VA - 2008 - Avtentychna muzyka Ukrayiny CD6.wav

    Peak level 100.0 %
    Extraction speed 1.1 X
    Range quality 99.9 %
    Test CRC 4E8E1959
    Copy CRC 4E8E1959
    Copy OK

    No errors occurred

    AccurateRip summary

    Track 1 not present in database
    Track 2 not present in database
    Track 3 not present in database
    Track 4 not present in database
    Track 5 not present in database
    Track 6 not present in database
    Track 7 not present in database
    Track 8 not present in database
    Track 9 not present in database
    Track 10 not present in database
    Track 11 not present in database
    Track 12 not present in database
    Track 13 not present in database
    Track 14 not present in database
    Track 15 not present in database
    Track 16 not present in database
    Track 17 not present in database
    Track 18 not present in database
    Track 19 not present in database

    None of the tracks are present in the AccurateRip database

    End of status report

    ---- CUETools DB Plugin V2.1.3

    [CTDB TOCID: dJ7YCRa85g26vzXVP9vPBdFsg2w-] found, Submit result: dJ7YCRa85g26vzXVP9vPBdFsg2w- has been confirmed
    [aaae6ed0] (1/1) Accurately ripped

    ==== Log checksum 749767B51EB1B7DBAB2367A16877EC20D15820D011136FF6667356F15D6B82CE ====
    fooCDtect
    fooCDtect - foobar2000 + auCDtect, baralgin.

    auCDtect: CD records authenticity detector, version 0.8.2
    Copyright (c) 2004 Oleg Berngardt. All rights reserved.
    Copyright (c) 2004 Alexander Djourik. All rights reserved.

    mode: 0

    ===========================================
    Track: 01 - Сюїта танців з Бориспільщини
    Quality: MPEG 92%
    ===========================================
    Track: 02 - Танец (з табулатури Войцеха Длугорая)
    Quality: CDDA 85%
    ===========================================
    Track: 03 - Бистренькії річеньки
    Quality: CDDA 100%
    ===========================================
    Track: 04 - Кто кріпко на Бога уповая (Феофан Прокопович)
    Quality: CDDA 100%
    ===========================================
    Track: 05 - Русинський танець
    Quality: CDDA 100%
    ===========================================
    Track: 06 - Ой, біда, біда мні, чайці-небозі (Іван Мазепа)
    Quality: CDDA 100%
    ===========================================
    Track: 07 - Танец (з табулатури Войцеха Длугорая)
    Quality: MPEG 100%
    ===========================================
    Track: 08 - Сизий голубочку
    Quality: CDDA 100%
    ===========================================
    Track: 09 - Ах, ушли мої літа
    Quality: CDDA 100%
    ===========================================
    Track: 10 - Ой ти, птичко жовтобока (Григорій Сковорода)
    Quality: CDDA 100%
    ===========================================
    Track: 11 - Гайдуцький танець
    Quality: MPEG 100%
    ===========================================
    Track: 12 - Козацький танець
    Quality: MPEG 100%
    ===========================================
    Track: 13 - Розлилися води
    Quality: CDDA 100%
    ===========================================
    Track: 14 - Ой, долом-долом; Зійду я на гору
    Quality: MPEG 100%
    ===========================================
    Track: 15 - Заключний танець з 'Вертепу'
    Quality: MPEG 100%
    ===========================================
    Track: 16 - Кант
    Quality: MPEG 100%
    ===========================================
    Track: 17 - А у полі річка
    Quality: CDDA 100%
    ===========================================
    Track: 18 - Ох, несносним жалем
    Quality: CDDA 100%
    ===========================================
    Track: 19 - Ой, перестань, мій наймильший, до мене ходити
    Quality: CDDA 100%
    ===========================================
    CD7 Сидить козак та в кобзоньку грає. Від традиційного виконавства до кобзарського мистецтва

    Пісні:
      01. Буковинський лірник (1:43)
      02. Молодичка, Саврадим, Млинок (3:19)
      03. Плач невольників (5:56)
      04. Побратався сокіл (2:42)
      05. Георгію (2:58)
      06. Всякому городу нрав і права (3:38)
      07. Пісня про смерть козака (6:44)
      08. Про біду (2:32)
      09. Страстям Христовим (3:55)
      10. Козак - валець, Ой, їхав не заїхав, Циганочка, Дудочка, Козак (6:11)
      11. Ой, горе-горе (5:52)
      12. Про Хому та Ярему (5:39)


    Тривалість: 00:51:08

    Виконавці:
    Вадим Шевчук (Ярема): 1, 4, 5
    Сергій Захарець; 2, 3
    Микола Плекан: 6-9
    Тарас Шушайло: 10
    Євген Гамага: 11
    Андрій Білоус: 12
    log
    Exact Audio Copy V1.0 beta 3 from 29. August 2011

    EAC extraction logfile from 2. January 2014, 15:27

    Various / Автентична музика України CD7: Сидить козак та в кобзоньку грає. Від традиційного виконавства до кобзарського мистецтва

    Used drive : SAMSUNG CD-ROM SC-152C Adapter: 0 ID: 0

    Read mode : Secure
    Utilize accurate stream : Yes
    Defeat audio cache : Yes
    Make use of C2 pointers : No

    Read offset correction : 600
    Overread into Lead-In and Lead-Out : No
    Fill up missing offset samples with silence : Yes
    Delete leading and trailing silent blocks : No
    Null samples used in CRC calculations : Yes
    Used interface : Native Win32 interface for Win NT & 2000

    Used output format : User Defined Encoder
    Selected bitrate : 1024 kBit/s
    Quality : High
    Add ID3 tag : No
    Command line compressor : C:\Blade\Programs\wavpack-4.60.1\wavpack.exe
    Additional command line options : -hlmx2 %source% %dest%

    TOC of the extracted CD

    Track | Start | Length | Start sector | End sector
    ---------------------------------------------------------
    1 | 0:00.00 | 1:42.55 | 0 | 7704
    2 | 1:42.55 | 3:18.59 | 7705 | 22613
    3 | 5:01.39 | 5:55.55 | 22614 | 49293
    4 | 10:57.19 | 2:42.31 | 49294 | 61474
    5 | 13:39.50 | 2:58.17 | 61475 | 74841
    6 | 16:37.67 | 3:37.44 | 74842 | 91160
    7 | 20:15.36 | 6:44.09 | 91161 | 121469
    8 | 26:59.45 | 2:31.71 | 121470 | 132865
    9 | 29:31.41 | 3:55.34 | 132866 | 150524
    10 | 33:27.00 | 6:11.11 | 150525 | 178360
    11 | 39:38.11 | 5:51.41 | 178361 | 204726
    12 | 45:29.52 | 5:38.40 | 204727 | 230116

    Range status and errors

    Selected range

    Filename C:\Blade\music\work\VA - 2008 - Avtentychna muzyka Ukrayiny CD7.wav

    Peak level 100.0 %
    Extraction speed 1.3 X
    Range quality 99.9 %
    Test CRC F911D1CA
    Copy CRC F911D1CA
    Copy OK

    No errors occurred

    AccurateRip summary

    Track 1 not present in database
    Track 2 not present in database
    Track 3 not present in database
    Track 4 not present in database
    Track 5 not present in database
    Track 6 not present in database
    Track 7 not present in database
    Track 8 not present in database
    Track 9 not present in database
    Track 10 not present in database
    Track 11 not present in database
    Track 12 not present in database

    None of the tracks are present in the AccurateRip database

    End of status report

    ---- CUETools DB Plugin V2.1.3

    [CTDB TOCID: iXr1_6PmP_95po_aNMdjF0fdXNQ-] disk not present in database, Submit result: database access error: The request was aborted: The request was canceled.

    ==== Log checksum F8AF52B2F5EBC9598D689CC0FD53F26910F08241D03E7DF9E378097CEE1E0B64 ====
    fooCDtect
    fooCDtect - foobar2000 + auCDtect, baralgin.

    auCDtect: CD records authenticity detector, version 0.8.2
    Copyright (c) 2004 Oleg Berngardt. All rights reserved.
    Copyright (c) 2004 Alexander Djourik. All rights reserved.

    mode: 0

    ===========================================
    Track: 01 - Буковинський лірник
    Quality: MPEG 100%
    ===========================================
    Track: 02 - Молодичка, Саврадим, Млинок
    Quality: CDDA 87%
    ===========================================
    Track: 03 - Плач невольників
    Quality: CDDA 100%
    ===========================================
    Track: 04 - Побратався сокіл
    Quality: MPEG 100%
    ===========================================
    Track: 05 - Георгію
    Quality: MPEG 100%
    ===========================================
    Track: 06 - Всякому городу нрав і права
    Quality: CDDA 99%
    ===========================================
    Track: 07 - Пісня про смерть козака
    Quality: CDDA 100%
    ===========================================
    Track: 08 - Про біду
    Quality: CDDA 100%
    ===========================================
    Track: 09 - Страстям Христовим
    Quality: CDDA 100%
    ===========================================
    Track: 10 - Козак - валець, Ой, їхав не заїхав, Циганочка, Дудочка, Козак
    Quality: CDDA 100%
    ===========================================
    Track: 11 - Ой, горе-горе
    Quality: CDDA 100%
    ===========================================
    Track: 12 - Про Хому та Ярему
    Quality: CDDA 43%
    ===========================================
    CD8 Сидить козак та в кобзоньку грає. Від традиційного виконавства до кобзарського мистецтва

    Пісні:
      01. По горам-горам, сам Господь ходив (5:05)
      02. Собралась біднота (4:21)
      03. Гей, у мене був коняка (2:45)
      04. Кисіль (2:52)
      05. Щиголь (4:29)
      06. Одарочка (3:25)
      07. Ой, крикнули сірі гуси (4:45)
      08. Ой, продала дівчинонька курку (3:19)
      09. Про Кармелюка (3:19)
      10. Полтавський марш (2:57)
      11. Про Бондарівну (4:34)
      12. При дорозі жук (3:34)
      13. Козачки, Тропак, Запорожець (3:04)


    Тривалість: 00:48:28

    Виконавці:
    Михайло Коваль: 1-3
    Тарас Шушайло: 4
    Євген Гамага: 5
    Сергій Захарець: 6, 9-13
    Микола Плекан: 7, 9
    log
    Exact Audio Copy V1.0 beta 3 from 29. August 2011

    EAC extraction logfile from 2. January 2014, 20:00

    Various / Автентична музика України CD8: Сидить козак та в кобзоньку грає. Від традиційного виконавства до кобзарського мистецтва

    Used drive : SAMSUNG CD-ROM SC-152C Adapter: 0 ID: 0

    Read mode : Secure
    Utilize accurate stream : Yes
    Defeat audio cache : Yes
    Make use of C2 pointers : No

    Read offset correction : 600
    Overread into Lead-In and Lead-Out : No
    Fill up missing offset samples with silence : Yes
    Delete leading and trailing silent blocks : No
    Null samples used in CRC calculations : Yes
    Used interface : Native Win32 interface for Win NT & 2000

    Used output format : User Defined Encoder
    Selected bitrate : 1024 kBit/s
    Quality : High
    Add ID3 tag : No
    Command line compressor : C:\Blade\Programs\wavpack-4.60.1\wavpack.exe
    Additional command line options : -hlmx2 %source% %dest%

    TOC of the extracted CD

    Track | Start | Length | Start sector | End sector
    ---------------------------------------------------------
    1 | 0:00.00 | 5:04.45 | 0 | 22844
    2 | 5:04.45 | 4:21.15 | 22845 | 42434
    3 | 9:25.60 | 2:44.51 | 42435 | 54785
    4 | 12:10.36 | 2:52.31 | 54786 | 67716
    5 | 15:02.67 | 4:28.45 | 67717 | 87861
    6 | 19:31.37 | 3:24.71 | 87862 | 103232
    7 | 22:56.33 | 4:45.21 | 103233 | 124628
    8 | 27:41.54 | 3:18.49 | 124629 | 139527
    9 | 31:00.28 | 3:18.50 | 139528 | 154427
    10 | 34:19.03 | 2:57.02 | 154428 | 167704
    11 | 37:16.05 | 4:33.48 | 167705 | 188227
    12 | 41:49.53 | 3:34.35 | 188228 | 204312
    13 | 45:24.13 | 3:03.48 | 204313 | 218085

    Range status and errors

    Selected range

    Filename C:\Blade\music\work\VA - 2008 - Avtentychna muzyka Ukrayiny CD8.wav

    Peak level 100.0 %
    Extraction speed 1.3 X
    Range quality 99.9 %
    Test CRC 4D0794DE
    Copy CRC 4D0794DE
    Copy OK

    No errors occurred

    AccurateRip summary

    Track 1 not present in database
    Track 2 not present in database
    Track 3 not present in database
    Track 4 not present in database
    Track 5 not present in database
    Track 6 not present in database
    Track 7 not present in database
    Track 8 not present in database
    Track 9 not present in database
    Track 10 not present in database
    Track 11 not present in database
    Track 12 not present in database
    Track 13 not present in database

    None of the tracks are present in the AccurateRip database

    End of status report

    ---- CUETools DB Plugin V2.1.3

    [CTDB TOCID: p4xSYqKhvJRBOSDNllnl5IreK.c-] disk not present in database, Submit result: database access error: The request was aborted: The request was canceled.

    ==== Log checksum C0EE4A5E5AA522579FCCC638C52A06725476DBC49A19BF9CC6126A4D113E30D4 ====
    fooCDtect
    fooCDtect - foobar2000 + auCDtect, baralgin.

    auCDtect: CD records authenticity detector, version 0.8.2
    Copyright (c) 2004 Oleg Berngardt. All rights reserved.
    Copyright (c) 2004 Alexander Djourik. All rights reserved.

    mode: 0

    ===========================================
    Track: 01 - По горам-горам, сам Господь ходив
    Quality: CDDA 100%
    ===========================================
    Track: 02 - Собралась біднота
    Quality: CDDA 100%
    ===========================================
    Track: 03 - Гей, у мене був коняка
    Quality: CDDA 100%
    ===========================================
    Track: 04 - Кисіль
    Quality: CDDA 99%
    ===========================================
    Track: 05 - Щиголь
    Quality: CDDA 100%
    ===========================================
    Track: 06 - Одарочка
    Quality: CDDA 100%
    ===========================================
    Track: 07 - Ой, крикнули сірі гуси
    Quality: CDDA 100%
    ===========================================
    Track: 08 - Ой, продала дівчинонька курку
    Quality: CDDA 100%
    ===========================================
    Track: 09 - Про Кармелюка
    Quality: CDDA 100%
    ===========================================
    Track: 10 - Полтавський марш
    Quality: CDDA 100%
    ===========================================
    Track: 11 - Про Бондарівну
    Quality: CDDA 100%
    ===========================================
    Track: 12 - При дорозі жук
    Quality: CDDA 100%
    ===========================================
    Track: 13 - Козачки, Тропак, Запорожець
    Quality: CDDA 100%
    ===========================================

Тривалість: 06:10:10
Мова: українська
Аудіо-кодек: WavPack
Бітрейт: 671-865 кб/с
Джерело: нетлаб
Додаткова інформація:
Ви бачите перед собою надзвичайно цікаве подарункове видання – у ньому вдало поєднано: насичений і різноплановий зміст, який цілком може сперечатися зі змістом інших колекцій цього напрямку; просте, але гарне оздоблення кожної платівки; демократична ціна. Власне, таку колекцію не лише варто мати у себе, її приємно дарувати – а це теж чимало важить.

Зміст охоплює дві лінії. Одна – календарно-обрядова, тож на перших чотирьох дисках колекції можна почути пісні на всі пори року, і то не лише святкові. Друга – пісні, умовно кажучи, побутові. Тут представлено твори троїстих музик, старовинні канти і танці, а також (на подвійному диску) традиційне та сучасне кобзарське мистецтво. У загальному ж підсумку – це 173 твори, близько 6 годин музики.

Окремо варто відзначити високу майстерність виконавців – повний перелік залучених музикантів каже сам за себе: фольклорні гурти Кралиця, Веснянка, Волиняни, Лукині роси, Старі коні, Троян, етногурт Сільська музика, Микола Тотовицький, ансамбль стародавньої музики під керівництвом К. Чечені за участі Ніни Матвієнко та Надії Боянівської, а також Вадим Шевчук (Ярема), Сергій Захарець, Микола Плекан, Тарас Шушайло, Євген Гамага, Андрій Білоус, Михайло Коваль. Абсолютну більшість з цих виконавців Ви вже мали змогу побачити і почути у нас раніше – тож, гадаємо, їхня вправність жодних сумнівів не викликатиме.

Таким чином, колекція "Автентична музика України" – для кожного, хто цінує український фольклор у професійному виконанні, яке має на меті, передовсім, збереження традиції – а отже, музикування у манері, якомога ближчій до автентичної.


Якщо Ви справді бажаєте підтримати українське - після прослуховування, якщо музика вам сподобалась,
придбайте ліцензійний диск.
Підтримаймо вітчизняних виконавців!


Золотий реліз (завантажене не впливає на рейтинг)
 Трекер:    Зареєстрований   

Завантажити / скачати українську музику



відео для новачків



 Зареєстрований:   2014-01-23 23:28
 Розмір:   2.35 GB 
 Оцінка музики:   8.6/10 (Голосів: 19)
   
bot 
робот


З нами з: 30.09.07
Востаннє: 26.05.05
Повідомлень: 16026

2014-01-22 18:56  
Тему перенесено з Етно, Фольклор, Народна, Бардівська до форуму Анонси релізів


ssTAss

bot 
робот


З нами з: 30.09.07
Востаннє: 26.05.05
Повідомлень: 16026

2014-01-23 23:27  
Тему перенесено з Анонси релізів до форуму Етно, Фольклор, Народна, Бардівська


ssTAss

Ваш часовий пояс: GMT + 2 Години

Нова тема   Відповісти