Завантажити та скачати торренти українською


Гаррі Поттер і в'язень Азкабану / Harry Potter and the Prisoner of Azkaban (2004) 1080p 3xUkr/Eng | Sub Ukr/Eng

Нові коментарі

Нова тема   Відповісти
Автор Повідомлення
leroykendall 
Модератор HD


З нами з: 03.01.11
Востаннє: 20.11.16
Повідомлень: 749

2014-01-21 22:10  
Гаррі Поттер і в'язень Азкабану / Harry Potter and the Prisoner of Azkaban (2004) 1080p 3xUkr/Eng | Sub Ukr/Eng

Гаррі Поттер і в'язень Азкабану / Harry Potter and the Prisoner of Azkaban (2004) 1080p 3xUkr/Eng | Sub Ukr/Eng

«The time has come»

Жанр: пригодницький, сімейний, фентезі
Країна: Великобританія, США





Кінокомпанія: Warner Bros., 1492 Pictures, Heyday Films
Режисер: Альфонсо Куарон (Alfonso Cuarón)
Актори: Деніел Редкліф (Daniel Radcliffe), Руперт Ґрінт (Rupert Grint), Емма Вотсон (Emma Watson), Том Фелтон, Ґері Олдмен (Gary Oldman), Девід Т'юліс, Майкл Ґембон, Алан Рікмен, Роббі Колтрейн, Меґґі Сміт, Джеймс Фелпс (James Phelps), Олівер Фелпс (Oliver Phelps)

Сюжет:
Гаррі, Рон і Герміона продовжують своє навчання в Школі Магії і Чарів Гоґвортс. Новий семестр у Гоґвортсі обіцяє багато пригод і задоволень! Ви дізнаєтеся, як Гаррі освоює нові премудрості чарівництва, приручає гіпогрифа Бакбика, б’ється з ховчиком, а також потайки проникаючи в село Гоґсмід. Але новий навчальний рік, на жаль, обіцяє безліч небезпек. У Гоґвортс пробрався вбивця, на рахунку якого безліч життів і людей, і чарівників. Для охорони школи запрошені лиховісні вартові в’язниці Азкабан – дементори. Гаррі та його друзі дуже скоро з’ясовують, чому всі чарівники бояться дементорів. Поттер вирішує знайти вбивцю. З Гаррі висмоктують душу дементори, а маг Сіріус Блек, втікши з Азкабану, відкриє сезон полювання на нашого юного героя! Тепер Гаррі в небезпеці навіть за стінами своєї чарівної школи, навіть в оточенні друзів! Гаррі, Рон і Герміона пускаються в нові авантюри: друзям доведеться подолати часові межі, відкрити таємницю минулого Гаррі і викрити зрадника.


Тривалість: 02:21:42
Якість: 1080p
Відео:
кодек:
розмір кадру: 1920 х 796
бітрейт: 10900 кб/с

Аудіо # 1:
мова: українська
переклад: багатоголосий закадровий
кодек: 5.1
бітрейт: 640 кб/с
Інформація про озвучення
Аудіо # 2:
мова: українська
переклад: багатоголосий закадровий Новий канал
кодек: 2.0
бітрейт: 192 кб/с Аудіо # 3:
мова: українська
переклад: багатоголосий закадровий
кодек: 2.0
бітрейт: 192 кб/с
Інформація про озвучення
Переклад: Романа Дяченка
Уривок з "Макбета" Шекспіра у перекладі: Бориса Тена
Літературний редактор: Ольга Чернілевська
Звукорежисер: Віктор Коляда
Режисер: Станіслав Чернілевський
Ролі озвучили: Євген Нищук, Наталя Задніпровська, Юрій Коваленко та Олесь Гімбаржевський.
Аудіо # 4:
мова: українська
переклад: багатоголосий закадровий
кодек: 2.0
бітрейт: 192 кб/с
Інформація про озвучення
двоканальний варіант першої доріжки
Аудіо # 5:
мова: англійська
переклад: оригінал
кодек: 5.1
бітрейт: 1536 кб/с

Субтитри:
мова: українська
тип: програмні (м'які)
формат: *.srt

Субтитри:
мова: англійська
тип: програмні (м'які)
формат: *.srt
MediaInfo
Код:
General
Unique ID                                : 191101843262455412052041877478773647371 (0x8FC4E0510BFA8D6A8B7F1139F734680B)
Complete name                            : V:\Harry Potter and the Prisoner of Azkaban (2004) [3xUkr, Eng] 1080p [Hurtom, HDClub] by leroykendall.mkv
Format                                   : Matroska
Format version                           : Version 4 / Version 2
File size                                : 13.5 GiB
Duration                                 : 2h 21mn
Overall bit rate                         : 13.6 Mbps
Movie name                               : Harry Potter and the Prisoner of Azkaban (2004) [3xUkr, Eng] 1080p [Hurtom, HDClub] by leroykendall
Encoded date                             : UTC 2014-01-20 21:45:58
Writing application                      : mkvmerge v6.2.0 ('Promised Land') built on Apr 28 2013 12:22:01
Writing library                          : libebml v1.3.0 + libmatroska v1.4.0

Video
ID                                       : 1
Format                                   : AVC
Format/Info                              : Advanced Video Codec
Format profile                           : [email protected]
Format settings, CABAC                   : Yes
Format settings, ReFrames                : 5 frames
Codec ID                                 : V_MPEG4/ISO/AVC
Duration                                 : 2h 21mn
Bit rate                                 : 10.9 Mbps
Width                                    : 1 920 pixels
Height                                   : 796 pixels
Display aspect ratio                     : 2.40:1
Frame rate mode                          : Constant
Frame rate                               : 23.976 fps
Color space                              : YUV
Chroma subsampling                       : 4:2:0
Bit depth                                : 8 bits
Scan type                                : Progressive
Bits/(Pixel*Frame)                       : 0.297
Stream size                              : 10.5 GiB (78%)
Title                                    : Harry Potter and the Prisoner of Azkaban (2004) 1080p
Writing library                          : core 64 r985 e256ea1
Encoding settings                        : cabac=1 / ref=5 / deblock=1:-3:-3 / analyse=0x3:0x113 / me=umh / subme=6 / psy_rd=1.0:0.0 / brdo=1 / mixed_ref=1 / me_range=16 / chroma_me=1 / trellis=0 / 8x8dct=1 / cqm=2 / deadzone=6,4 / chroma_qp_offset=-2 / threads=6 / nr=0 / decimate=0 / mbaff=0 / bframes=16 / b_pyramid=1 / b_adapt=1 / b_bias=0 / direct=1 / wpredb=1 / bime=1 / keyint=250 / keyint_min=25 / scenecut=40(pre) / rc=2pass / bitrate=10897 / ratetol=1.0 / qcomp=0.60 / qpmin=10 / qpmax=51 / qpstep=4 / cplxblur=20.0 / qblur=0.5 / ip_ratio=1.40 / pb_ratio=1.30 / aq=1:1.00
Language                                 : English
Default                                  : Yes
Forced                                   : No

Audio #1
ID                                       : 2
Format                                   : AC-3
Format/Info                              : Audio Coding 3
Mode extension                           : CM (complete main)
Format settings, Endianness              : Big
Codec ID                                 : A_AC3
Duration                                 : 2h 21mn
Bit rate mode                            : Constant
Bit rate                                 : 640 Kbps
Channel count                            : 6 channels
Channel positions                        : Front: L C R, Side: L R, LFE
Sampling rate                            : 48.0 KHz
Bit depth                                : 16 bits
Compression mode                         : Lossy
Stream size                              : 649 MiB (5%)
Title                                    : 5.1 @ 640 kbps - багатоголосий закадровий, К1
Language                                 : Ukrainian
Default                                  : Yes
Forced                                   : No

Audio #2
ID                                       : 3
Format                                   : AC-3
Format/Info                              : Audio Coding 3
Mode extension                           : CM (complete main)
Format settings, Endianness              : Big
Codec ID                                 : A_AC3
Duration                                 : 2h 21mn
Bit rate mode                            : Constant
Bit rate                                 : 192 Kbps
Channel count                            : 2 channels
Channel positions                        : Front: L R
Sampling rate                            : 48.0 KHz
Bit depth                                : 16 bits
Compression mode                         : Lossy
Stream size                              : 195 MiB (1%)
Title                                    : 2.0 @ 192 kbps - багатоголосий закадровий, Новий канал
Language                                 : Ukrainian
Default                                  : No
Forced                                   : No

Audio #3
ID                                       : 4
Format                                   : AC-3
Format/Info                              : Audio Coding 3
Mode extension                           : CM (complete main)
Format settings, Endianness              : Big
Codec ID                                 : A_AC3
Duration                                 : 2h 21mn
Bit rate mode                            : Constant
Bit rate                                 : 192 Kbps
Channel count                            : 2 channels
Channel positions                        : Front: L R
Sampling rate                            : 48.0 KHz
Bit depth                                : 16 bits
Compression mode                         : Lossy
Stream size                              : 195 MiB (1%)
Title                                    : 2.0 @ 192 kbps - багатоголосий закадровий, 1+1
Language                                 : Ukrainian
Default                                  : No
Forced                                   : No

Audio #4
ID                                       : 5
Format                                   : AC-3
Format/Info                              : Audio Coding 3
Mode extension                           : CM (complete main)
Format settings, Endianness              : Big
Codec ID                                 : A_AC3
Duration                                 : 2h 21mn
Bit rate mode                            : Constant
Bit rate                                 : 192 Kbps
Channel count                            : 2 channels
Channel positions                        : Front: L R
Sampling rate                            : 48.0 KHz
Bit depth                                : 16 bits
Compression mode                         : Lossy
Stream size                              : 195 MiB (1%)
Title                                    : 2.0 @ 192 kbps - багатоголосий закадровий, Інтер
Language                                 : Ukrainian
Default                                  : No
Forced                                   : No

Audio #5
ID                                       : 6
Format                                   :
Format/Info                              : Digital Theater Systems
Mode                                     : 16
Format settings, Endianness              : Big
Codec ID                                 : A_DTS
Duration                                 : 2h 21mn
Bit rate mode                            : Constant
Bit rate                                 : 1 510 Kbps
Channel count                            : 6 channels
Channel positions                        : Front: L C R, Side: L R, LFE
Sampling rate                            : 48.0 KHz
Bit depth                                : 24 bits
Compression mode                         : Lossy
Stream size                              : 1.49 GiB (11%)
Title                                    : 5.1 @ 1536 kbps
Language                                 : English
Default                                  : No
Forced                                   : No

Text #1
ID                                       : 7
Format                                   : UTF-8
Codec ID                                 : S_TEXT/UTF8
Codec ID/Info                            : UTF-8 Plain Text
Language                                 : Ukrainian
Default                                  : No
Forced                                   : No

Text #2
ID                                       : 8
Format                                   : UTF-8
Codec ID                                 : S_TEXT/UTF8
Codec ID/Info                            : UTF-8 Plain Text
Language                                 : English
Default                                  : No
Forced                                   : No

Menu
00:00:00.000                             : en:Under Covers Prologue
00:01:40.100                             : en:Aunt Marge's Big Mistake
00:06:36.229                             : en:The Knight Bus
00:12:45.931                             : en:The Leaky Cauldron
00:14:52.516                             : en:The Monster Book of Monsters
00:16:12.513                             : en:In Grave Danger
00:18:56.218                             : en:The Dementor
00:23:50.387                             : en:Welcome and Warning
00:28:50.729                             : en:Tea Leaves
00:31:21.838                             : en:Backbeak
00:38:50.161                             : en:Boggart in the Wardrobe
00:44:45.307                             : en:Talent for Trouble
00:47:37.813                             : en:Flight of the Fat Lady
00:49:39.935                             : en:Substitute Teacher
00:53:42.844                             : en:Grim Defeat
00:57:28.403                             : en:The Marauder's Map
01:01:23.721                             : en:Who's There?
01:03:22.924                             : en:I Hope He Finds Me
01:07:10.985                             : en:The Patronus
01:11:53.475                             : en:Seeing the Impossible
01:19:10.078                             : en:Professor Trelarney's Prediction
01:22:29.945                             : en:Witness to an Execution
01:27:30.870                             : en:The Whomping Willow
01:30:13.366                             : en:Sirius Black
01:34:19.028                             : en:Peter Pettigrew
01:36:56.894                             : en:Friends Become Foes
01:42:24.471                             : en:The Dementor's Kiss
01:45:40.334                             : en:Hermione's Secret
01:50:03.597                             : en:Onlookers to the Rescue
01:55:33.343                             : en:Saving Lives
02:00:07.408                             : en:Truly Seen, Truly Free
02:03:16.055                             : en:Two Places at Once
02:06:02.513                             : en:Mischief Managed
02:08:42.923                             : en:The Firebolt
02:09:47.404                             : en:End Credits Map
Скріншоти:




Джерело: &



Інші частини Гаррі Поттера 1080p:
Гаррі Поттер і філософський камінь / Harry Potter and the Sorcerer's Stone (2001) 1080p 2xUkr/Eng | Sub Ukr/Eng
Гаррі Поттер і філософський камінь (розширена версія) / Harry Potter (extended version) / (2001) 1080p Ukr/Eng | Sub Ukr
Гаррі Поттер і таємна кімната / Harry Potter and the Chamber of Secrets (2002) 1080p 2xUkr/Eng | Sub Ukr/Eng
Гаррі Поттер і в'язень Азкабану / Harry Potter and the Prisoner of Azkaban (2004) 1080p 3xUkr/Eng | Sub Ukr/Eng
Гаррі Поттер і келих вогню / Harry Potter and the Goblet of Fire (2005) 1080p 2xUkr/Eng | Sub Ukr/Eng
Гаррі Поттер та Орден Фенікса / Harry Potter and the Order of the Phoenix (2007) 1080p Ukr/Eng | Sub Ukr/Eng
Гаррі Поттер та напівкровний принц / Harry Potter and the Half-Blood Prince (2009) 1080p 2xUkr/Eng | Sub Ukr/Eng
Гаррі Поттер та Смертельні реліквії: Частина 1 / Harry Potter and the Deathly Hallows: Part 1 (2010) 1080p Ukr/Eng
Гаррі Поттер та Смертельні Реліквії. Частина друга / Harry Potter and the Deathly Hallows: Part 2 (2011) 1080p Ukr/Eng


Срібний реліз (на рейтинг впливає 50% завантаженого)
 Трекер:    Зареєстрований   

Завантажити / скачати фільм українською



відео для новачків



 Зареєстрований:   2014-01-21 22:10
 Розмір:   13.49 GB 
 Оцінка фільму:   9.6/10 (Голосів: 41)
   
NeetScrool 
Відео Гуртом - фільмокрай
Відео Гуртом - фільмокрай


З нами з: 10.01.13
Востаннє: 03.12.16
Повідомлень: 2206

2014-01-21 22:19  
4xUkr
leroykendall 
Модератор HD


З нами з: 03.01.11
Востаннє: 20.11.16
Повідомлень: 749

2014-01-21 22:23  
NeetScrool написано:
4xUkr

3xUkr - по К1 та Інтеру ідентична озвучка - це зазначено в описі.

Ваш часовий пояс: GMT + 2 Години

Нова тема   Відповісти