Завантажити та скачати торренти українською


Глибина / Below (2002) 720p-mini 2хUkr

Нові коментарі

Нова тема   Відповісти
Автор Повідомлення
Drool 
VIP


З нами з: 17.04.10
Востаннє: 03.12.16
Повідомлень: 1262

2014-01-21 12:54  
Глибина / Below (2002) 720p-mini 2хUkr

Жанр: містика, трилер, жахи
Країна: США



Кінокомпанія: Dimension Films, Protozoa Pictures
Режисер: Девід Туї
Актори: Меттю Девіс, Брюс Ґрінвуд, Голт МакКллані, Декстер Флетчер, Нік Чілнлауд, Олівія Вілямс та інші.

Сюжет:
Розпал Другої світової війни. Американський підводний човен «Манта», направлений для порятунку членів екіпажу британського плавучого госпіталю, що вижили, вимушений ховатися на глибині від німецьких субмарин. Йдучи ближче до дна, підводники виявляють, що там, внизу, є ще щось - явно не нацистські судна, щось нез'ясовне і, можливо, надприродне.


Тривалість: 01:45:18
Якість: 720p-mini
Відео:
кодек:
розмір кадру: 1280x720
бітрейт: 2500 кб/с

Аудіо # 1:
мова: українська
переклад: багатоголосий закадровий
кодек: 2.0
бітрейт: 192 кб/с
Джерело озвучення:


Аудіо # 2:
мова: українська
переклад: двоголосий закадровий
кодек: 2.0
бітрейт: 192 кб/с
Джерело озвучення:
MediaInfo
General
Unique ID : 75397107008927325933795929532332096074 (0x38B8F46160B2AE84964C7A220079BA4A)
Complete name : /mnt/disk/Video/Below.2002.2xUkr..720p-mini.UAGet.mkv
Format : Matroska
File size : 2.13 GiB
Duration : 1h 45mn
Overall bit rate : 2 890 Kbps
Writing application : HandBrake rev0
Writing library : libmkv 0.6.5

Video
ID : 1
Format : AVC
Format/Info : Advanced Video Codec
Format profile : [email protected]
Format settings, CABAC : Yes
Format settings, ReFrames : 7 frames
Codec ID : V_MPEG4/ISO/AVC
Duration : 1h 45mn
Bit rate : 2 500 Kbps
Width : 1 280 pixels
Height : 720 pixels
Display aspect ratio : 16:9
Frame rate : 23.976 fps
Color space : YUV
Chroma subsampling : 4:2:0
Bit depth : 8 bits
Scan type : Progressive
Bits/(Pixel*Frame) : 0.113
Stream size : 1.80 GiB (85%)
Writing library : core 135 r2345 f0c1c53
Encoding settings : cabac=1 / ref=8 / deblock=1:-3:-3 / analyse=0x3:0x133 / me=umh / subme=11 / psy=1 / psy_rd=1,10:0,15 / mixed_ref=1 / me_range=32 / chroma_me=1 / trellis=2 / 8x8dct=1 / cqm=0 / deadzone=21,11 / fast_pskip=0 / chroma_qp_offset=-3 / threads=6 / lookahead_threads=1 / sliced_threads=0 / nr=0 / decimate=1 / interlaced=0 / bluray_compat=0 / constrained_intra=0 / bframes=8 / b_pyramid=1 / b_adapt=2 / b_bias=0 / direct=3 / weightb=1 / open_gop=0 / weightp=2 / keyint=240 / keyint_min=24 / scenecut=40 / intra_refresh=0 / rc=2pass / mbtree=0 / bitrate=2500 / ratetol=1,0 / qcomp=1,00 / qpmin=0 / qpmax=69 / qpstep=4 / cplxblur=20,0 / qblur=0,5 / ip_ratio=1,40 / pb_ratio=1,30 / aq=2:0,60
Language : English
Color primaries : BT.709-5, BT.1361, IEC 61966-2-4, SMPTE RP177
Transfer characteristics : BT.709-5, BT.1361
Matrix coefficients : BT.709-5, BT.1361, IEC 61966-2-4 709, SMPTE RP177

Audio #1
ID : 2
Format : AC-3
Format/Info : Audio Coding 3
Mode extension : CM (complete main)
Codec ID : A_AC3
Duration : 1h 45mn
Bit rate mode : Constant
Bit rate : 192 Kbps
Channel(s) : 2 channels
Channel positions : Front: L R
Sampling rate : 48.0 KHz
Bit depth : 16 bits
Compression mode : Lossy
Stream size : 145 MiB (7%)
Language : Ukrainian

Audio #2
ID : 3
Format : AC-3
Format/Info : Audio Coding 3
Mode extension : CM (complete main)
Codec ID : A_AC3
Duration : 1h 45mn
Bit rate mode : Constant
Bit rate : 192 Kbps
Channel(s) : 2 channels
Channel positions : Front: L R
Sampling rate : 48.0 KHz
Bit depth : 16 bits
Compression mode : Lossy
Stream size : 145 MiB (7%)
Language : Ukrainian
Скріншоти




Реліз від: та звукові доріжки від
Подяка за сирий звук пану karvai0
Особиста оцінка: 9 - давно не бачив настільки якісне кіно


Срібний реліз (на рейтинг впливає 50% завантаженого)
 Трекер:    Зареєстрований   

Завантажити / скачати фільм українською



відео для новачків



 Зареєстрований:   2014-01-23 13:05
 Розмір:   2.13 GB 
 Оцінка фільму:   9.5/10 (Голосів: 19)
   
Інші релізи
   Глибина / Below (2002) 2хUkr/Eng robotron005  2 / 1   1.61 GB   2013-08-07 16:03 
bot 
робот


З нами з: 30.09.07
Востаннє: 26.05.05
Повідомлень: 15977

2014-01-21 12:54  
Тему перенесено з Фільми в HD до форуму Анонси релізів


Drool

boroznaya 
VIP


З нами з: 02.11.12
Востаннє: 03.12.16
Повідомлень: 1868

2014-01-21 13:38  
Назва фільму "Глибина", напишіть будь-ласка!
akon111 
Відео Гуртом - запис з ТБ
Відео Гуртом - запис з ТБ


З нами з: 28.08.09
Востаннє: 03.12.16
Повідомлень: 1204

2014-01-21 13:38  
хіба ананоси можуть робити і прості користувачі?
Drool 
VIP


З нами з: 17.04.10
Востаннє: 03.12.16
Повідомлень: 1262

2014-01-21 16:07  
boroznaya написано:
Назва фільму "Глибина", напишіть будь-ласка!

Вибачаюсь, недописав.

Додано через 33 секунди:

akon111 написано:
хіба ананоси можуть робити і прості користувачі?

Не переживайте. Як тільки докачаю блюрей та зроблю, оформлю та викладу ріп - я приберу це з анонсів Wink (1)

pseudogiant 
VIP


З нами з: 24.08.12
Востаннє: 03.12.16
Повідомлень: 805

2014-01-21 16:20  
akon111 написано:
хіба ананоси можуть робити і прості користувачі?

Тепер здається так.

omm 
Відео Гуртом - фільмокрай
Відео Гуртом - фільмокрай


З нами з: 12.06.12
Востаннє: 03.12.16
Повідомлень: 2066

2014-01-21 16:20  
akon111 написано:
хіба ананоси можуть робити і прості користувачі?

завжди дивувало це правило. Виглядає так, начебто можливість робити анонси це якийсь привілей для учасників Відео Гуртом, хоча в цьому нічого особливого нема. І не бачу в цьому нічого страшного, якщо анонс зробить простий користувач. Тим більше, коли це вже не перший його реліз, і все правильно оформлено

kino. 
Модератор відео


З нами з: 27.06.10
Востаннє: 03.12.16
Повідомлень: 2900

2014-01-21 16:26  
akon111 написано:
хіба ананоси можуть робити і прості користувачі?

можуть

natalka-poltavka95 
Свій


З нами з: 25.09.12
Востаннє: 28.10.16
Повідомлень: 125

2014-01-22 23:44  
Drool написано:
посланий на виручку залишившимся в живих членам екіпажу

Що це таке???
Посланий, щоб врятувати членів екіпажу, які вижили.

bot 
робот


З нами з: 30.09.07
Востаннє: 26.05.05
Повідомлень: 15977

2014-01-23 13:05  
Тему перенесено з Анонси релізів до форуму Фільми в HD


Drool

patriot2305 
Почесний гуртомівець


З нами з: 23.04.11
Востаннє: 03.12.16
Повідомлень: 4145

2014-01-23 16:57  
Доріжки звідки? Сумніваюсь, що з "юаґет"...
Drool 
VIP


З нами з: 17.04.10
Востаннє: 03.12.16
Повідомлень: 1262

2014-01-23 19:27  
patriot2305 написано:
Доріжки звідки? Сумніваюсь, що з "юаґет"...

З Remux-у.

cyber 
Новенький


З нами з: 26.02.10
Востаннє: 03.12.16
Повідомлень: 15

2014-01-23 20:00  
Класний фільм. Дякую!
patriot2305 
Почесний гуртомівець


З нами з: 23.04.11
Востаннє: 03.12.16
Повідомлень: 4145

2014-01-24 19:05  
Drool написано:
З Remux-у

http://toloka.to/t48992 ось звідки доріжки... Чужу працю треба поважати, тож напишіть будь ласка хто доріжки синронізував, хто записував... І додайте до джерела "Проект Відео Гуртом" бо доріжки від нас...

Drool 
VIP


З нами з: 17.04.10
Востаннє: 03.12.16
Повідомлень: 1262

2014-01-24 21:41  
patriot2305 написано:
Чужу працю треба поважати, тож напишіть будь ласка хто доріжки синронізував, хто записував... І додайте до джерела "Проект Відео Гуртом" бо доріжки від нас...

Я завжди поважаю чужу працю, однак у вихідному Remux-і не було вказано ні звідки взято доріжки, ні хто муксував, ні хто записував. За вказаним посиланням вказано лише, що сирі доріжки від karvai0, прошу уточнити хто синхронізував.

Ваш часовий пояс: GMT + 2 Години

Нова тема   Відповісти