Завантажити та скачати торренти українською


Керрі / Carrie (1976) 720p Ukr/Eng | Sub Eng

Нові коментарі

Нова тема   Відповісти
Автор Повідомлення
leroykendall 
Модератор HD


З нами з: 03.01.11
Востаннє: 20.11.16
Повідомлень: 749

2014-01-19 20:06  
Керрі / Carrie (1976) 720p Ukr/Eng | Sub Eng

Керрі / Carrie (1976) 720p Ukr/Eng | Sub Eng

«If only they knew she had the power.»

Жанр: жахи, трилер
Країна: США





Кінокомпанія: Metro Goldwyn Mayer
Режисер: Браян Де Пальма / Brian De Palma
Актори: Сіссі Спейсек (Sissy Spacek), Пайпер Лори (Piper Laurie), Емі Ірвінґ (Amy Irving), Вільям Кетт (William Katt), Джон Траволта (John Travolta), Ненсі Аллен (Nancy Allen), Бетті Баклі (Betty Buckley), П.Дж. Соулз (P.J. Soles), Прісцілла Пойнтер (Priscilla Pointer), Сідні Лессік (Sydney Lassick)

Сюжет:
Фільм знятий за романом Стівена Кінга "Керрі". Веснянкувата Керрі - об'єкт для насмішок з боку дівчаток з класу. У волейбол вона грає гірше за інших, зовсім не користується косметикою, її не помічають хлопці. Вихована побожною матір'ю, Керрі абсолютно не готова до життя в суспільстві. Прищі - це покарання господнє. Все навколо гріх. Хлопці - вони завжди біжать на кров. Шкіряться і пускають слину в передчутті цього ...


Тривалість: 01:38:11
Якість: 720p (ріп від DON!)
Відео:
кодек:
розмір кадру: 1280 х 694
бітрейт: 4865 кб/с

Аудіо # 1:
мова: українська
переклад: двоголосий закадровий
кодек: 5.1
бітрейт: 384 кб/с
Інформація про озвучення
Аудіо # 2:
мова: англійська
переклад: оригінал
кодек: 5.1
бітрейт: 1536 кб/с

Субтитри:
мова: англійська
тип: програмні (м'які)
формат: *.srt

Збережені оригінальні чаптери як на Blu-ray.
MediaInfo
Код:
General
Unique ID                                : 203116448057543867420426045984894221091 (0x98CECE11477A5D4DB6E2D830A289FB23)
Complete name                            : V:\Carrie (1976) [Ukr, Eng] 720p [Hurtom] by leroykendall.mkv
Format                                   : Matroska
Format version                           : Version 4 / Version 2
File size                                : 4.64 GiB
Duration                                 : 1h 38mn
Overall bit rate                         : 6 761 Kbps
Movie name                               : Carrie (1976) [Ukr, Eng] 720p [Hurtom] by leroykendall
Encoded date                             : UTC 2014-01-18 21:44:27
Writing application                      : mkvmerge v6.2.0 ('Promised Land') built on Apr 28 2013 12:22:01
Writing library                          : libebml v1.3.0 + libmatroska v1.4.0

Video
ID                                       : 1
Format                                   : AVC
Format/Info                              : Advanced Video Codec
Format profile                           : [email protected]
Format settings, CABAC                   : Yes
Format settings, ReFrames                : 5 frames
Format settings, GOP                     : N=1
Codec ID                                 : V_MPEG4/ISO/AVC
Duration                                 : 1h 38mn
Bit rate                                 : 4 865 Kbps
Width                                    : 1 280 pixels
Height                                   : 694 pixels
Display aspect ratio                     : 1.85:1
Frame rate mode                          : Constant
Frame rate                               : 23.976 fps
Color space                              : YUV
Chroma subsampling                       : 4:2:0
Bit depth                                : 8 bits
Scan type                                : Progressive
Bits/(Pixel*Frame)                       : 0.228
Stream size                              : 3.25 GiB (70%)
Title                                    : Carrie (1976) 720p
Writing library                          : core 65 r999M cc51047
Encoding settings                        : cabac=1 / ref=5 / deblock=1:-3:-3 / analyse=0x3:0x133 / me=umh / subme=8 / psy_rd=1.0:1.0 / mixed_ref=1 / me_range=16 / chroma_me=1 / trellis=2 / 8x8dct=1 / cqm=2 / deadzone=21,11 / chroma_qp_offset=-4 / threads=6 / nr=0 / decimate=1 / mbaff=0 / bframes=5 / b_pyramid=1 / b_adapt=2 / b_bias=0 / direct=3 / wpredb=1 / keyint=250 / keyint_min=25 / scenecut=40(pre) / rc=2pass / bitrate=4865 / ratetol=1.0 / qcomp=0.60 / qpmin=10 / qpmax=51 / qpstep=4 / cplxblur=20.0 / qblur=0.5 / ip_ratio=1.40 / pb_ratio=1.30 / aq=1:1.10
Language                                 : English
Default                                  : Yes
Forced                                   : No

Audio #1
ID                                       : 2
Format                                   : AC-3
Format/Info                              : Audio Coding 3
Mode extension                           : CM (complete main)
Format settings, Endianness              : Big
Codec ID                                 : A_AC3
Duration                                 : 1h 38mn
Bit rate mode                            : Constant
Bit rate                                 : 384 Kbps
Channel count                            : 6 channels
Channel positions                        : Front: L C R, Side: L R, LFE
Sampling rate                            : 48.0 KHz
Bit depth                                : 16 bits
Compression mode                         : Lossy
Stream size                              : 270 MiB (6%)
Title                                    : 5.1 @ 384 kbps - двоголосий закадровий 1+1
Language                                 : Ukrainian
Default                                  : Yes
Forced                                   : No

Audio #2
ID                                       : 3
Format                                   :
Format/Info                              : Digital Theater Systems
Mode                                     : 16
Format settings, Endianness              : Big
Codec ID                                 : A_DTS
Duration                                 : 1h 38mn
Bit rate mode                            : Constant
Bit rate                                 : 1 509 Kbps
Channel count                            : 6 channels
Channel positions                        : Front: L C R, Side: L R, LFE
Sampling rate                            : 48.0 KHz
Bit depth                                : 24 bits
Compression mode                         : Lossy
Stream size                              : 1.03 GiB (22%)
Language                                 : English
Default                                  : No
Forced                                   : No

Text
ID                                       : 4
Format                                   : UTF-8
Codec ID                                 : S_TEXT/UTF8
Codec ID/Info                            : UTF-8 Plain Text
Language                                 : English
Default                                  : No
Forced                                   : No

Menu
00:00:00.000                             : en:The Shower
00:06:44.987                             : en:It's Carrie
00:09:15.346                             : en:Creepy Carie
00:09:52.383                             : en:Mrs. White visits
00:12:27.455                             : en:Carrie's sins
00:16:42.418                             : en:The Mirror
00:19:07.604                             : en:Beautiful Poem
00:21:29.788                             : en:The Punishment
00:25:34.866                             : en:1-2-3-4
00:26:49.566                             : en:Telekinesis
00:29:19.382                             : en:The Favour
00:30:08.973                             : en:Heatwave
00:33:03.523                             : en:Billy
00:35:48.271                             : en:The Pep Talk
00:39:06.177                             : en:Why?
00:41:32.740                             : en:Acceptance
00:45:02.866                             : en:No! No! No!
00:48:28.572                             : en:The Bucket
00:49:42.396                             : en:Everbody's Talkin'
00:53:03.763                             : en:All Gonna Laugh
00:55:32.287                             : en:Are You Scared?
00:58:46.064                             : en:First dance
01:05:30.426                             : en:Election
01:07:58.199                             : en:Switcheroo
01:10:13.626                             : en:King & Queen
01:13:14.306                             : en:Blood
01:16:44.850                             : en:Revenge
01:20:49.970                             : en:Road Rage
01:21:34.848                             : en:The Devil
01:28:36.227                             : en:Sacrifice
01:33:41.699                             : en:The Final Grab
01:36:50.721                             : en:End Credits
Скріншоти:





Подяки
Sando7 за український звук



Джерело:


Срібний реліз (на рейтинг впливає 50% завантаженого)
 Трекер:    Зареєстрований   

Завантажити / скачати фільм українською



відео для новачків



 Зареєстрований:   2014-01-19 20:07
 Розмір:   4.64 GB 
 Оцінка фільму:   10/10 (Голосів: 4)
   
Інші релізи
   Керрі / Carrie (1976) Ukr/Eng | Sub Eng karvai0  3 / 1   1.72 GB   2014-01-14 13:13 
Ваш часовий пояс: GMT + 2 Години

Нова тема   Відповісти