Завантажити та скачати торренти українською


Так, можливо / Definitely, Maybe (2008) 720p Ukr/Eng | Sub Eng

Нові коментарі

Нова тема   Відповісти
Автор Повідомлення
leroykendall 
Модератор HD


З нами з: 03.01.11
Востаннє: 20.11.16
Повідомлень: 749

2014-01-16 01:12  
Так, можливо / Definitely, Maybe (2008) 720p Ukr/Eng | Sub Eng

Так, можливо / Definitely, Maybe (2008) 720p Ukr/Eng | Sub Eng

«Three relationships. Three disasters. One last chance.»
Альтернативний постер # 1
Так, можливо / Definitely, Maybe (2008) 720p Ukr/Eng | Sub Eng
Альтернативний постер # 2
Так, можливо / Definitely, Maybe (2008) 720p Ukr/Eng | Sub Eng

Жанр: комедія, драма, романтичний, мелодрама
Країна: Великобританія, США, Франція



Кінокомпанія: Universal Pictures
Режисер: Адам Брукс (Adam Brooks)
Актори: Раян Рейнольдс (Ryan Reynolds), Ен Нгуйєн (An Nguyen), Меттью Мейсон (Matthew Mason), Рік Дербі (Rick Derby), Сакіна Джеффрі (Sakina Jaffrey), Боб Вілтфонг (Bob Wiltfong), Райдер Чейсін (Ryder Chasin), Фіона Лейн (Fiona Lane) та інші.

Сюжет:
Як пояснити дитині, чому її батьки розлучаються? Для маленької дівчинки мама і тато завжди люблять один одного, і інакше бути просто не може.
Головний герой картини - Вілл - вирішує показати доньці свою історію. Він розповідає їй про три романи, які були в його житті. Один з них - з її мамою. Два інших - не привели ні до чого серйозного. Дівчинка бачить всю картину очима її тата. Вона відчуває (за нього), як він і переживає разом з ним усі події. Зрештою, навіть дитині стає зрозуміло, що весілля - не завжди щасливий кінець, і що почуття можуть залишитися десь далеко з іншою людиною.


Тривалість: 01:51:41
Якість: 720p
Відео:
кодек:
розмір кадру: 1280 х 544
бітрейт: 4499 кб/с

Аудіо # 1:
мова: українська
переклад: багатоголосий закадровий
кодек: 5.1
бітрейт: 448 кб/с
Інформація про озвучення
Аудіо # 2:
мова: англійська
переклад: оригінал
кодек: 5.1
бітрейт: 448 кб/с

Субтитри:
мова: англійська
тип: програмні (м'які)
формат: *.srt

Збережені оригінальні чаптери як на Blu-ray.
MediaInfo
Код:
General
Unique ID                                : 183156961028924151713893080159212477128 (0x89CABF6132687F70844430FC8FB31AC8)
Complete name                            : V:\Definitely, Maybe (2008) [Ukr, Eng] 720p [Hurtom] by leroykendall.mkv
Format                                   : Matroska
Format version                           : Version 4 / Version 2
File size                                : 4.21 GiB
Duration                                 : 1h 51mn
Overall bit rate                         : 5 395 Kbps
Movie name                               : Definitely, Maybe (2008) [Ukr, Eng] 720p [Hurtom] by leroykendall
Encoded date                             : UTC 2014-01-15 21:56:58
Writing application                      : mkvmerge v6.2.0 ('Promised Land') built on Apr 28 2013 12:22:01
Writing library                          : libebml v1.3.0 + libmatroska v1.4.0

Video
ID                                       : 1
Format                                   : AVC
Format/Info                              : Advanced Video Codec
Format profile                           : [email protected]
Format settings, CABAC                   : Yes
Format settings, ReFrames                : 9 frames
Codec ID                                 : V_MPEG4/ISO/AVC
Duration                                 : 1h 51mn
Bit rate                                 : 4 499 Kbps
Width                                    : 1 280 pixels
Height                                   : 544 pixels
Display aspect ratio                     : 2.35:1
Frame rate mode                          : Constant
Frame rate                               : 23.976 fps
Color space                              : YUV
Chroma subsampling                       : 4:2:0
Bit depth                                : 8 bits
Scan type                                : Progressive
Bits/(Pixel*Frame)                       : 0.269
Stream size                              : 3.43 GiB (81%)
Title                                    : Definitely, Maybe (2008) 720p
Writing library                          : core 114 r1900 60ef1f8
Encoding settings                        : cabac=1 / ref=9 / deblock=1:-3:-3 / analyse=0x3:0x133 / me=tesa / subme=10 / psy=1 / psy_rd=1.20:0.00 / mixed_ref=1 / me_range=16 / chroma_me=1 / trellis=2 / 8x8dct=1 / cqm=0 / deadzone=21,11 / fast_pskip=0 / chroma_qp_offset=-2 / threads=18 / sliced_threads=0 / nr=0 / decimate=0 / interlaced=0 / constrained_intra=0 / bframes=9 / b_pyramid=2 / b_adapt=2 / b_bias=0 / direct=3 / weightb=1 / open_gop=0 / weightp=2 / keyint=250 / keyint_min=23 / scenecut=40 / intra_refresh=0 / rc=2pass / mbtree=0 / bitrate=4499 / ratetol=1.0 / qcomp=0.60 / qpmin=0 / qpmax=51 / qpstep=4 / cplxblur=20.0 / qblur=0.5 / ip_ratio=1.40 / pb_ratio=1.30 / aq=2:0.50
Language                                 : English
Default                                  : Yes
Forced                                   : No

Audio #1
ID                                       : 2
Format                                   : AC-3
Format/Info                              : Audio Coding 3
Mode extension                           : CM (complete main)
Format settings, Endianness              : Big
Codec ID                                 : A_AC3
Duration                                 : 1h 51mn
Bit rate mode                            : Constant
Bit rate                                 : 448 Kbps
Channel count                            : 6 channels
Channel positions                        : Front: L C R, Side: L R, LFE
Sampling rate                            : 48.0 KHz
Bit depth                                : 16 bits
Compression mode                         : Lossy
Stream size                              : 358 MiB (8%)
Title                                    : 5.1 @ 448 kbps - багатоголосий закадровий - ТРК Україна
Language                                 : Ukrainian
Default                                  : Yes
Forced                                   : No

Audio #2
ID                                       : 3
Format                                   : AC-3
Format/Info                              : Audio Coding 3
Mode extension                           : CM (complete main)
Format settings, Endianness              : Big
Codec ID                                 : A_AC3
Duration                                 : 1h 51mn
Bit rate mode                            : Constant
Bit rate                                 : 448 Kbps
Channel count                            : 6 channels
Channel positions                        : Front: L C R, Side: L R, LFE
Sampling rate                            : 48.0 KHz
Bit depth                                : 16 bits
Compression mode                         : Lossy
Stream size                              : 358 MiB (8%)
Title                                    : 5.1 @ 448 kbps
Language                                 : English
Default                                  : No
Forced                                   : No

Text
ID                                       : 4
Format                                   : UTF-8
Codec ID                                 : S_TEXT/UTF8
Codec ID/Info                            : UTF-8 Plain Text
Language                                 : English
Default                                  : No
Forced                                   : No

Menu
00:00:00.000                             : en:Totally on Purpose (Main Titles)
00:05:56.856                             : en:Once Upon a Time
00:11:45.038                             : en:Missing You
00:18:52.840                             : en:Personal Revelation
00:21:40.758                             : en:Cultivated Curiosity
00:27:51.503                             : en:Moving Up
00:31:52.828                             : en:Rehearsed Proposal
00:38:15.627                             : en:Stuck in a Rut
00:42:16.909                             : en:We Had a Plan
00:50:41.163                             : en:I Got a Crush
00:58:33.510                             : en:Working Relationship
01:04:29.824                             : en:Happy For You
01:09:41.177                             : en:Heartbroken
01:14:06.859                             : en:In Love
01:19:59.128                             : en:It's Complicated
01:27:16.565                             : en:An Old Flame
01:33:17.634                             : en:Happy Ending
01:36:32.620                             : en:Never Quite Right
01:40:58.511                             : en:Last Chance
01:46:54.074                             : en:End Titles
Скріншоти:






Подяки
Technomate та Sando7 за звукозапис з ТБ
Gelios за українізацію постерів
_oles за синхронізацію доріжки



Джерело:


 Трекер:    Зареєстрований   

Завантажити / скачати фільм українською



відео для новачків



 Зареєстрований:   2014-01-16 01:12
 Розмір:   4.21 GB 
 Оцінка фільму:   10/10 (Голосів: 6)
   
Інші релізи
Ваш часовий пояс: GMT + 2 Години

Нова тема   Відповісти