Завантажити та скачати торренти українською


SkinHate | Дискографія (4 альбоми) (2001-2006) [FLAC, APE] | HateCore/Hardcore

Нові коментарі

Нова тема   Відповісти
Автор Повідомлення
ninenine 
Відео Гуртом - фільмокрай
Відео Гуртом - фільмокрай


З нами з: 23.10.09
Востаннє: 05.12.16
Повідомлень: 1147

2014-01-14 14:49  
SkinHate | Дискографія (4 альбоми) (2001-2006) [FLAC, APE] | HateCore/Hardcore

SkinHate | Дискографія (4 альбоми) (2001-2006) [FLAC, APE] | HateCore/Hardcore


Стиль: HateCore, HardCore, Nu-Metal
Країна, місто: Україна, Орджонікідзе
Видавець: Moon Records
Виконавці:
КухХхтя (Кухтін Олександр) - ударні
Кузьма (Кузнецов Віталій) - бас-гітара
Куст (Кустіков Дмитро) - вокал
Степан (Степаненко Олександр) - гітара

Колишні учасники:
Андрій «Юрик» Дядюра - вокал, гітара (1999-2001)
Олексій «Alexbrutalcore» Фісюк - бас-гітара (2008-2010)
Сергій «Банан» Маришев - бас-гітара (2004-2008)
Євген «Ж.К.» Лашко - вокал (1999-2006; 2008-2009)
Антон «Калина» Єлісін - бас-гітара (2000-2002)

Альбоми:
Війна в головах (2001)



Пісні:
1. Пістолет
2. Паскуда
3. На х..
4. Це все
5. Додман
6. Війна ч.1
7. Пустош
8. Війна ч.2
9. Біль
10. Не любOFFь
11. Харє Крішна
12. Три місяці (Умираю mix)
13. LAINO (RMX by DJ Vol'D'Mair)

Тривалість: 00:53:28
Мова: українська
Аудіо-кодек: APE
Бітрейт: 946 кб/с
Звіт EAC:
Exact Audio Copy V0.99 prebeta 4 from 23. January 2008

Звіт EAC про видобування, котре виконане 14. березня 2009, 14:49

Skinhate / Війна в головах

Дисковод: PIONEER DVD-RW DVR-111L Adapter: 1 ID: 0

Режим читання : Точний
Використати точний потік : Так
Вимкнути аудіо кеш : Так
Застосувати мітки C2 : Ні

Корекція зміщення при читанні : 48
Екстрачитання областей Lead-in і Lead-out : Ні
Заповнення пропущених семплів тишею : Так
Видалення блоків з тишею на початку і кінці : Ні
При вирахуванні CRC використовувались нульові семпли : Ні
Використаний інтерфейс : Встановлений зовнішній ASPI-інтерфейс

Застосований вихідний формат : Кодер Monkey's Audio Lossless
Обраний бітрейт : Normal Lossless Compression
Якість : Високий
Додати тег ID3 : Ні
Компресор командного рядка : C:\Program Files\Monkey's Audio\MAC.exe
Додаткові параметри командного рядка : -6 -V -T "ARTIST=%a" -T "TITLE=%t" -T "ALBUM=%g" -T "DATE=%y" -T "TRACKNUMBER=%n" -T "GENRE=%m" -T "COMMENT=%e" %s -o %d

TOC видобутого CD

Трек | Старт | Довжина | Початковий сектор | Кінцевий сектор
------------------------------------------------------------------
1 | 0:00.00 | 3:57.65 | 0 | 17839
2 | 3:57.65 | 4:23.43 | 17840 | 37607
3 | 8:21.33 | 2:53.61 | 37608 | 50643
4 | 11:15.19 | 4:45.61 | 50644 | 72079
5 | 16:01.05 | 3:47.14 | 72080 | 89118
6 | 19:48.19 | 4:43.22 | 89119 | 110365
7 | 24:31.41 | 4:18.17 | 110366 | 129732
8 | 28:49.58 | 5:05.63 | 129733 | 152670
9 | 33:55.46 | 3:51.54 | 152671 | 170049
10 | 37:47.25 | 4:28.69 | 170050 | 190218
11 | 42:16.19 | 3:45.65 | 190219 | 207158
12 | 46:02.09 | 4:17.10 | 207159 | 226443
13 | 50:19.19 | 3:09.54 | 226444 | 240672

Статус діапазону і помилки

Обраний діапазон

Ім'я файлу D:\FUцK\RIPS\Skinhate - Війна в головах (2001)\Skinhate - Війна в головах.wav

Піковий рівень 100.0 %
Якість діапазону 100.0 %
CRC тесту 159A76CE
CRC копії 159A76CE
Копіювання... OK

Помилки не траплялися

Звіт Точного Видобування

Трек 1 не присутнє в базі даних
Трек 2 не присутнє в базі даних
Трек 3 не присутнє в базі даних
Трек 4 не присутнє в базі даних
Трек 5 не присутнє в базі даних
Трек 6 не присутнє в базі даних
Трек 7 не присутнє в базі даних
Трек 8 не присутнє в базі даних
Трек 9 не присутнє в базі даних
Трек 10 не присутнє в базі даних
Трек 11 не присутнє в базі даних
Трек 12 не присутнє в базі даних
Трек 13 не присутнє в базі даних

Жодного трека немає в базі AccurateRip

Кінець звіту
Індексна катра (.CUE):
REM GENRE Hardcore
REM DATE 2001
REM DISCID AE0C880D
REM COMMENT "ExactAudioCopy v0.99pb4"
PERFORMER "Skinhate"
TITLE "Війна в головах"
FILE "Skinhate - Вийна в головах.ape" WAVE
TRACK 01 AUDIO
TITLE "Пістолет"
PERFORMER "Skinhate"
FLAGS DCP
INDEX 01 00:00:00
TRACK 02 AUDIO
TITLE "Паскуда"
PERFORMER "Skinhate"
FLAGS DCP
INDEX 00 03:57:62
INDEX 01 03:57:65
TRACK 03 AUDIO
TITLE "На ..."
PERFORMER "Skinhate"
FLAGS DCP
INDEX 00 08:21:29
INDEX 01 08:21:33
TRACK 04 AUDIO
TITLE "Це все..."
PERFORMER "Skinhate"
FLAGS DCP
INDEX 00 11:15:12
INDEX 01 11:15:19
TRACK 05 AUDIO
TITLE "Додман"
PERFORMER "Skinhate"
FLAGS DCP
INDEX 00 16:01:03
INDEX 01 16:01:05
TRACK 06 AUDIO
TITLE "Війна ч.I"
PERFORMER "Skinhate"
FLAGS DCP
INDEX 01 19:48:19
TRACK 07 AUDIO
TITLE "Пустош"
PERFORMER "Skinhate"
FLAGS DCP
INDEX 00 24:31:38
INDEX 01 24:31:41
TRACK 08 AUDIO
TITLE "Війна ч.II"
PERFORMER "Skinhate"
FLAGS DCP
INDEX 01 28:49:58
TRACK 09 AUDIO
TITLE "Біль"
PERFORMER "Skinhate"
FLAGS DCP
INDEX 01 33:55:46
TRACK 10 AUDIO
TITLE "НелюбOFF"
PERFORMER "Skinhate"
FLAGS DCP
INDEX 00 37:47:23
INDEX 01 37:47:25
TRACK 11 AUDIO
TITLE "Харе Крішна"
PERFORMER "Skinhate"
FLAGS DCP
INDEX 01 42:16:19
TRACK 12 AUDIO
TITLE "Три місяці (Умираю mix)"
PERFORMER "Skinhate"
FLAGS DCP
INDEX 00 46:02:06
INDEX 01 46:02:09
TRACK 13 AUDIO
TITLE "LAINO (RMX by DJ Vol'D'Mair)"
PERFORMER "Skinhate"
FLAGS DCP
INDEX 01 50:19:19
Звіт auCDtect Task Manager:
-----------------------

DON'T MODIFY THIS FILE

-----------------------

PERFORMER: auCDtect Task Manager, ver. 1.5.1RC6 build 1.5.1.7
Copyright (c) 2008-2010 y-soft. All rights reserved
http://y-soft.org

ANALYZER: auCDtect: CD records authenticity detector, version 0.8.2
Copyright (c) 2004 Oleg Berngardt. All rights reserved.
Copyright (c) 2004 Alexander Djourik. All rights reserved.

FILE: Skinhate - Вийна в головах.ape
Size: 379710448 Hash: E0EBB7AD7AF832A81B8DDCCF1B32C7FB Accuracy: -m0
Conclusion: CDDA 100%
Signature: 96B05B058199F1CC8A3AE41389F7D76B1BDD35DD
Квиток До Раю (2002)



Пісні:
1. Всунь
2. П.П.
3. Слюні
4. Вода
5. Колір за Коліром
6. Не буде
7. Чорне
8. Самоліквідатор
9. Квиток до раю
10. Люди=Люди
11. Нескінченна
12. Шоколад
13. Крига
14. Так!
15. Три місяці
16. Орджо
17. Висунь

Тривалість: 00:49:29
Мова: українська
Аудіо-кодек: FLAC
Бітрейт: 1035 кб/с
Звіт EAC:
Exact Audio Copy V0.99 prebeta 4 from 23. January 2008

Отчёт EAC об извлечении, выполненном 21. марта 2009, 11:18

Skinhate / Квиток До Раю

Дисковод: Optiarc DVD RW AD-7201S Adapter: 4 ID: 2

Режим чтения : Достоверность
Использование точного потока : Да
Отключение кэша аудио : Да
Использование указателей C2 : Нет

Коррекция смещения при чтении : 48
Способность читать области Lead-in и Lead-out : Нет
Заполнение пропущенных сэмплов тишиной : Да
Удаление блоков с тишиной в начале и конце : Нет
При вычислениях CRC использовались нулевые сэмплы : Да
Интерфейс : Установленный внешний ASPI-интерфейс

Выходной формат : Пользовательский кодировщик
Выбранный битрейт : 768 kBit/s
Качество : Высокий
Добавление ID3-тэга : Нет
Утилита сжатия : C:\Program Files\Exact Audio Copy\FLAC\FLAC.EXE
Дополнительные параметры : -6 -V -T "ARTIST=%a" -T "TITLE=%t" -T "ALBUM=%g" -T "DATE=%y" -T "TRACKNUMBER=%n" -T "GENRE=%m" -T "COMMENT=%e" %s -o %d

TOC извлечённого CD

Трек | Старт | Длительность | Начальный сектор | Конечный сектор
---------------------------------------------------------------------
1 | 0:00.00 | 0:55.00 | 0 | 4124
2 | 0:55.00 | 3:39.66 | 4125 | 20615
3 | 4:34.66 | 2:39.60 | 20616 | 32600
4 | 7:14.51 | 2:30.09 | 32601 | 43859
5 | 9:44.60 | 0:54.50 | 43860 | 47959
6 | 10:39.35 | 4:17.63 | 47960 | 67297
7 | 14:57.23 | 3:32.08 | 67298 | 83205
8 | 18:29.31 | 2:52.60 | 83206 | 96165
9 | 21:22.16 | 4:12.70 | 96166 | 115135
10 | 25:35.11 | 3:54.65 | 115136 | 132750
11 | 29:30.01 | 0:35.23 | 132751 | 135398
12 | 30:05.24 | 3:53.12 | 135399 | 152885
13 | 33:58.36 | 4:42.58 | 152886 | 174093
14 | 38:41.19 | 3:09.62 | 174094 | 188330
15 | 41:51.06 | 5:11.35 | 188331 | 211690
16 | 47:02.41 | 1:05.35 | 211691 | 216600
17 | 48:08.01 | 1:21.00 | 216601 | 222675

Характеристики диапазона извлечения и сообщения об ошибках

Выбранный диапазон

Имя файла D:\Z Seeds\Skinhate\2002 - Квиток До Раю\Music\Skinhate - Квиток До Раю.wav

Пиковый уровень 99.2 %
Качество диапазона 99.9 %
CRC копии 68CDEBB8
Копирование... OK

Ошибок не произошло

Конец отчёта
Індексна катра (.CUE):
REM GENRE Metal
REM DATE 2002
REM DISCID E40B9911
REM COMMENT "ExactAudioCopy v0.99pb4"
PERFORMER "Skinhate"
TITLE "Квиток До Раю"
FILE "Skinhate - Квиток До Раю.flac" WAVE
TRACK 01 AUDIO
TITLE "Всунь"
PERFORMER "Skinhate"
INDEX 01 00:00:00
TRACK 02 AUDIO
TITLE "П.П."
PERFORMER "Skinhate"
INDEX 01 00:55:00
TRACK 03 AUDIO
TITLE "Слюні"
PERFORMER "Skinhate"
INDEX 01 04:34:66
TRACK 04 AUDIO
TITLE "Квиток До Раю"
PERFORMER "Skinhate"
INDEX 01 07:14:51
TRACK 05 AUDIO
TITLE "Вода"
PERFORMER "Skinhate"
INDEX 01 09:44:60
TRACK 06 AUDIO
TITLE "Три Місяці"
PERFORMER "Skinhate"
INDEX 01 10:39:35
TRACK 07 AUDIO
TITLE "Колір За Кольором"
PERFORMER "Skinhate"
INDEX 01 14:57:23
TRACK 08 AUDIO
TITLE "Чорне"
PERFORMER "Skinhate"
INDEX 01 18:29:31
TRACK 09 AUDIO
TITLE "Люди=Люди"
PERFORMER "Skinhate"
INDEX 01 21:22:16
TRACK 10 AUDIO
TITLE "Шоколад"
PERFORMER "Skinhate"
INDEX 01 25:35:11
TRACK 11 AUDIO
TITLE "Крига"
PERFORMER "Skinhate"
INDEX 01 29:30:01
TRACK 12 AUDIO
TITLE "Не Буде"
PERFORMER "Skinhate"
INDEX 01 30:05:24
TRACK 13 AUDIO
TITLE "Нескінченна"
PERFORMER "Skinhate"
INDEX 01 33:58:36
TRACK 14 AUDIO
TITLE "Так!"
PERFORMER "Skinhate"
INDEX 01 38:41:19
TRACK 15 AUDIO
TITLE "Самоліквідатор"
PERFORMER "Skinhate"
INDEX 01 41:51:06
TRACK 16 AUDIO
TITLE "Орджо"
PERFORMER "Skinhate"
INDEX 01 47:02:41
TRACK 17 AUDIO
TITLE "Висунь"
PERFORMER "Skinhate"
INDEX 01 48:08:01
Звіт auCDtect Task Manager:
-----------------------

DON'T MODIFY THIS FILE

-----------------------

PERFORMER: auCDtect Task Manager, ver. 1.5.1RC6 build 1.5.1.7
Copyright (c) 2008-2010 y-soft. All rights reserved
http://y-soft.org

ANALYZER: auCDtect: CD records authenticity detector, version 0.8.2
Copyright (c) 2004 Oleg Berngardt. All rights reserved.
Copyright (c) 2004 Alexander Djourik. All rights reserved.

FILE: Skinhate - Квиток До Раю.flac
Size: 384537312 Hash: 88F16C26F83D24E1C49B88B846BE258B Accuracy: -m0
Conclusion: CDDA 100%
Signature: 6263B03150BCAF59A7B6032C7E7703480202C138
HateMix (2004)



Пісні:
1. Intro (stooped buss)
2. Ordjo (hardcore mix)
3. Pistol (need for speed)
4. P.P. (bad trip-no hope)
5. Ticket (fuckin? **** mix)
6. Endless (5й поверх mix)
7. Blak (00:12 mix)
8. Квиток на х.. (slop mix)
9. Fag (гомак mix)
10. 3m (acid-гоп mix)
11. Out
12. Дніпро-чемпіон (багато пива не буває mix)

Тривалість: 00:46:52
Мова: українська
Аудіо-кодек: FLAC
Бітрейт: 618-990 кб/с
Звіт EAC:
Exact Audio Copy V0.99 prebeta 5 from 4. May 2009
EAC extraction logfile from 12. September 2009, 17:53
Skinhate / Hatemix
Used drive : Optiarc DVD RW AD-7191S Adapter: 3 ID: 0
Read mode : Secure
Utilize accurate stream : Yes
Defeat audio cache : Yes
Make use of C2 pointers : No
Read offset correction : 6
Overread into Lead-In and Lead-Out : No
Fill up missing offset samples with silence : Yes
Delete leading and trailing silent blocks : No
Null samples used in CRC calculations : No
Used interface : Installed external ASPI interface
Gap handling : Appended to previous track
Used output format : User Defined Encoder
Selected bitrate : 768 kBit/s
Quality : High
Add ID3 tag : No
Command line compressor : K:\Program Files\Exact Audio Copy\FLAC\FLAC.EXE
Additional command line options : -8 -V -T "ARTIST=%a" -T "TITLE=%t" -T "ALBUM=%g" -T "DATE=%y" -T "TRACKNUMBER=%n" -T "GENRE=%m" -T "COMMENT=EAC FLAC -8" %s
TOC of the extracted CD
Track | Start | Length | Start sector | End sector
---------------------------------------------------------
1 | 0:00.00 | 1:44.44 | 0 | 7843
2 | 1:44.44 | 3:09.14 | 7844 | 22032
3 | 4:53.58 | 3:23.72 | 22033 | 37329
4 | 8:17.55 | 4:21.04 | 37330 | 56908
5 | 12:38.59 | 4:03.66 | 56909 | 75199
6 | 16:42.50 | 6:08.50 | 75200 | 102849
7 | 22:51.25 | 4:26.56 | 102850 | 122855
8 | 27:18.06 | 5:00.74 | 122856 | 145429
9 | 32:19.05 | 4:19.41 | 145430 | 164895
10 | 36:38.46 | 4:22.34 | 164896 | 184579
11 | 41:01.05 | 1:15.04 | 184580 | 190208
12 | 42:16.09 | 4:34.54 | 190209 | 210812
Track 1
Filename C:\Scinhate - Hatemix\01. Skinhate - Intro (stoopid buss).wav
Pre-gap length 0:00:02.00
Peak level 98.1 %
Track quality 99.8 %
Test CRC 6CBE8F70
Copy CRC 6CBE8F70
Copy OK
Track 2
Filename C:\Scinhate - Hatemix\02. Skinhate - Bitcez (hardcore mix).wav
Peak level 98.1 %
Track quality 100.0 %
Test CRC 067FE7D5
Copy CRC 067FE7D5
Copy OK
Track 3
Filename C:\Scinhate - Hatemix\03. Skinhate - Pistol (need for speed).wav
Peak level 98.1 %
Track quality 100.0 %
Test CRC 0F9460BE
Copy CRC 0F9460BE
Copy OK
Track 4
Filename C:\Scinhate - Hatemix\04. Skinhate - P.P. (bad trip-no hope).wav
Peak level 98.1 %
Track quality 100.0 %
Test CRC 246A4D31
Copy CRC 246A4D31
Copy OK
Track 5
Filename C:\Scinhate - Hatemix\05. Skinhate - Ticket (fuckin'fuck mix).wav
Peak level 98.1 %
Track quality 100.0 %
Test CRC 4C3B7BF4
Copy CRC 4C3B7BF4
Copy OK
Track 6
Filename C:\Scinhate - Hatemix\06. Skinhate - Endless (5mix).wav
Peak level 98.1 %
Track quality 100.0 %
Test CRC C2FFA1AD
Copy CRC C2FFA1AD
Copy OK
Track 7
Filename C:\Scinhate - Hatemix\07. Skinhate - Blak (00-12 mix).wav
Peak level 98.1 %
Track quality 100.0 %
Test CRC B4F4D537
Copy CRC B4F4D537
Copy OK
Track 8
Filename C:\Scinhate - Hatemix\08. Skinhate - Билет на х.. (slop mix).wav
Peak level 98.1 %
Track quality 100.0 %
Test CRC 84CB057A
Copy CRC 84CB057A
Copy OK
Track 9
Filename C:\Scinhate - Hatemix\09. Skinhate - Fag (гомак-mix).wav
Peak level 98.1 %
Track quality 100.0 %
Test CRC 81298CEB
Copy CRC 81298CEB
Copy OK
Track 10
Filename C:\Scinhate - Hatemix\10. Skinhate - 3M (acid-гоп mix).wav
Peak level 98.1 %
Track quality 100.0 %
Test CRC B3CEEF7D
Copy CRC B3CEEF7D
Copy OK
Track 11
Filename C:\Scinhate - Hatemix\11. Skinhate - Out.wav
Peak level 98.1 %
Track quality 99.8 %
Test CRC E5D82C70
Copy CRC E5D82C70
Copy OK
Track 12
Filename C:\Scinhate - Hatemix\12. Skinhate - Днипро-Чемпион (много пива не бывает mix).wav
Peak level 98.1 %
Track quality 100.0 %
Test CRC D63ADCE3
Copy CRC D63ADCE3
Copy OK
No errors occurred
End of status report
Навкруги (2006)



Пісні:
1. Дипресія
2. Навкруги
3. Сам
4. Fashion
5. Камні
6. Колискова
7. Понеділок
8. Поради
9. Радіо
10. Дура
11. Мєдляк

Тривалість: 00:50:22
Мова: українська
Аудіо-кодек: FLAC
Бітрейт: 1064 кб/с
Звіт EAC:
Exact Audio Copy V0.99 prebeta 5 from 4. May 2009

EAC extraction logfile from 12. April 2011, 13:14

Skinhate / Навкруги

Used drive : ASUS DRW-1814BL Adapter: 3 ID: 0

Read mode : Secure
Utilize accurate stream : Yes
Defeat audio cache : Yes
Make use of C2 pointers : No

Read offset correction : 6
Overread into Lead-In and Lead-Out : No
Fill up missing offset samples with silence : Yes
Delete leading and trailing silent blocks : No
Null samples used in CRC calculations : Yes
Used interface : Installed external ASPI interface

Used output format : Internal WAV Routines
Sample format : 44.100 Hz; 16 Bit; Stereo

TOC of the extracted CD

Track | Start | Length | Start sector | End sector
---------------------------------------------------------
1 | 0:00.00 | 4:08.63 | 0 | 18662
2 | 4:08.63 | 3:31.15 | 18663 | 34502
3 | 7:40.03 | 4:25.51 | 34503 | 54428
4 | 12:05.54 | 4:11.30 | 54429 | 73283
5 | 16:17.09 | 3:59.66 | 73284 | 91274
6 | 20:17.00 | 4:42.39 | 91275 | 112463
7 | 24:59.39 | 4:33.69 | 112464 | 133007
8 | 29:33.33 | 5:02.15 | 133008 | 155672
9 | 34:35.48 | 4:43.36 | 155673 | 176933
10 | 39:19.09 | 5:44.12 | 176934 | 202745
11 | 45:03.21 | 5:19.29 | 202746 | 226699

Range status and errors

Selected range

Filename C:\Skinhate - Навкруги.wav

Peak level 100.0 %
Range quality 100.0 %
Test CRC 22EDEEC5
Copy CRC 22EDEEC5
Copy OK

No errors occurred

AccurateRip summary

Track 1 accurately ripped (confidence 2) [D91150DD]
Track 2 accurately ripped (confidence 2) [25EBD0DD]
Track 3 accurately ripped (confidence 2) [AA6F76F4]
Track 4 accurately ripped (confidence 2) [5353CB47]
Track 5 accurately ripped (confidence 2) [2E397392]
Track 6 accurately ripped (confidence 2) [7BE167AD]
Track 7 accurately ripped (confidence 2) [9412C28D]
Track 8 accurately ripped (confidence 2) [A85C9955]
Track 9 accurately ripped (confidence 2) [8024B151]
Track 10 accurately ripped (confidence 2) [C08EEC69]
Track 11 accurately ripped (confidence 2) [E6546A9E]

All tracks accurately ripped

End of status report
Індексна катра (.CUE):
REM GENRE "Nu Metal/Hardcore"
REM DATE 2006
REM DISCID 900BCE0B
REM COMMENT "ExactAudioCopy v0.99pb5"
PERFORMER "Skinhate"
TITLE "Навкруги"
FILE "Skinhate - Навкруги.flac" WAVE
TRACK 01 AUDIO
TITLE "Дипресiя"
PERFORMER "Skinhate"
FLAGS DCP
INDEX 01 00:00:00
TRACK 02 AUDIO
TITLE "Навкруги"
PERFORMER "Skinhate"
FLAGS DCP
INDEX 01 04:08:63
TRACK 03 AUDIO
TITLE "Сам"
PERFORMER "Skinhate"
FLAGS DCP
INDEX 01 07:40:03
TRACK 04 AUDIO
TITLE "Fashion"
PERFORMER "Skinhate"
FLAGS DCP
INDEX 01 12:05:54
TRACK 05 AUDIO
TITLE "Камнi"
PERFORMER "Skinhate"
FLAGS DCP
INDEX 01 16:17:09
TRACK 06 AUDIO
TITLE "Колискова"
PERFORMER "Skinhate"
FLAGS DCP
INDEX 01 20:17:00
TRACK 07 AUDIO
TITLE "Понедiлок"
PERFORMER "Skinhate"
FLAGS DCP
INDEX 01 24:59:39
TRACK 08 AUDIO
TITLE "Поради"
PERFORMER "Skinhate"
FLAGS DCP
INDEX 01 29:33:33
TRACK 09 AUDIO
TITLE "Радiо"
PERFORMER "Skinhate"
FLAGS DCP
INDEX 01 34:35:48
TRACK 10 AUDIO
TITLE "Дура"
PERFORMER "Skinhate"
FLAGS DCP
INDEX 01 39:19:09
TRACK 11 AUDIO
TITLE "Мєдляк"
PERFORMER "Skinhate"
FLAGS DCP
INDEX 01 45:03:21
Звіт auCDtect Task Manager:
-----------------------

DON'T MODIFY THIS FILE

-----------------------

PERFORMER: auCDtect Task Manager, ver. 1.5.1RC6 build 1.5.1.7
Copyright (c) 2008-2010 y-soft. All rights reserved
http://y-soft.org

ANALYZER: auCDtect: CD records authenticity detector, version 0.8.2
Copyright (c) 2004 Oleg Berngardt. All rights reserved.
Copyright (c) 2004 Alexander Djourik. All rights reserved.

FILE: Skinhate - Навкруги.flac
Size: 402304256 Hash: 44339C7E884043D82E5EE5E6506A77BC Accuracy: -m0
Conclusion: CDDA 99%
Signature: 2E3B83A884E20CB8BA62FB5F28BCFF3707231AD0
Тривалість: 03:20:11
Мова: українська
Аудіо-кодек: FLAC, APE
Бітрейт: 618-1064 кб/с
Джерело: Файлообмінні сайти
Біографія гурту:
Група « SkinHate » створена в 1996 році в місті Орджонікідзе . До складу групи увійшли Ж.К. - Вокал , Степан - гітара , Кузьма - бас і Кухта - ударні . Skinhate грає музику в стилі hard - core з елементами nu - metal .

Перший їх концерт в Києві відбувся в 1998 році , до цього часу група вже встигла записати альбом , своїми силами , під назвою « Skinhate » , після запису цього альбому на Moon Records , він знайшов назву « Війна в головах » У 2002 році випустили другий альбом « Квиток до раю ». Група демонструє хардкор американського зразка , цілком професійно зіграний . Іноді змінюється короткочасними агресивними трешевими нотками , іноді відхиляються в акустичні нетрі . У Києві група виступала раз десять , в таких місцях , як «Промзона » , «Київська Русь » і т. д. Група виступала досить часто в сусідньому з Орджонікідзе, місті Нікополь там їх вже багато люблять і знають . Більш того хлопці встигли засвітитися в сусідній Білорусії в 2002 році, в місті Гомель , де їх творчість була високо схвалено місцевими фанами.

Люди , які написали безсмертні рядки « Паскуда , су..а , тобі припи…ти мало» та й багато інших виразів , заслуговують розуміння та оцінки з точки зору того, що ці слова йдуть у них від душі , тобто вони не соромляться виражати у своїх піснях то, що думають і то, що відчувають , і в цьому їм потрібно віддати належне.

Нецензурних виразів дійсно дуже багато , але оскільки вони йдуть від душі , то незабаром перестаєш приділяти їм якусь особливу увагу . Зате вони надають пісням особливу соковитість і колорит.

У 2002 році на MOON Records вийшов другий альбом SKINHATE . « Квиток до раю » звучить ще потужнішим , ніж дебютний альбом. Теми пісень не помінялися : секс , людська тупість , тоталітаризм і ненависть до влади.

У 2004 році виходить альбом реміксів під назвою « Hatemix ».

У 2006 році група випускає альбом « Навкруги ». Це все той же хардкор / ню-метал , тільки він став набагато професійнішим і дорослішим , однак теми пісень не помінялися .

SkinHate - сьогодні чи не єдина команда , кого хвилює не тільки « відвисати ». Варто згадати , що істинний хард-кор - музика , в першу чергу , політичного спрямування , а невіра політикам в системі , яке звучить в деяких піснях команди , у всіх в крові , в українській крові.

На музику SKINHATE в тій чи іншій мірі вплинули наступні колективи : Machine Head , Korn , Biohazard , Slipknot , Slayer , Sepultura , Soulfly , Fear Factory і т.д.
УВАГА!!!! Реліз містить ненормативну лексику!!!!


Якщо Ви справді бажаєте підтримати українське - після прослуховування, якщо музика вам сподобалась, придбайте ліцензійний диск. Підтримаймо вітчизняних виконавців!


Золотий реліз (завантажене не впливає на рейтинг)
 Трекер:    Зареєстрований   

Завантажити / скачати українську музику



відео для новачків



 Зареєстрований:   2014-01-14 14:49
 Розмір:   1.65 GB 
 Оцінка музики:   8.9/10 (Голосів: 16)
   
ilitbr 
VIP


З нами з: 25.05.09
Востаннє: 04.12.16
Повідомлень: 428

2014-01-14 19:49  
Ех...музика юності. Дякую.
Oleksa9 
Поважний учасник


З нами з: 17.05.12
Востаннє: 05.12.16
Повідомлень: 225

2014-01-14 21:57  
Даруйте, але відколи це московське матюччя стало українською мовою?
prustypa 
Новенький


З нами з: 01.12.10
Востаннє: 12.11.16
Повідомлень: 2

2014-07-24 18:15  
дяка, файна музіка.
Ваш часовий пояс: GMT + 2 Години

Нова тема   Відповісти