Завантажити та скачати торренти українською


Мертвий Півень - Колекція (10 CD) (1997-2011) [FLAC] | Alternative Rock

Нові коментарі

Нова тема   Відповісти
Автор Повідомлення
gosha.samovar 
VIP


З нами з: 08.09.10
Востаннє: 04.12.16
Повідомлень: 400

2014-01-13 19:28  
Мертвий Півень - Колекція (10 CD) (1997-2011) [FLAC] | Alternative Rock

Мертвий Півень - Колекція (10 CD) (1997-2011) [FLAC] | Alternative Rock


Стиль: Alternative Rock
Країна, місто: Україна, Львів
Сайти: Офіційний сайт
Альбоми:
    1997 - 1989 - Вибране - 1997


      01. Ето
      02. Вікторія
      03. Ми помрем не в Парижі
      04. Літо буде
      05. Фаустове свято. Ніч
      06. Вона
      07. Зелене
      08. Осіннє
      09. Як багато суперзірок
      10. Підземне зоо
      11. Для тебе (Пес #2)
      12. Єдиноріг
      13. Il Testamento
      14. Франсуа
      15. Міський бог Ерос
      16. Байка
    EAC log
    Exact Audio Copy V1.0 beta 3 from 29. August 2011

    Отчёт EAC об извлечении, выполненном 7. июня 2013, 10:16

    Мертвий Півень / 1989 - Вибране - 1997

    Дисковод: PHILIPS SPD2519T Adapter: 2 ID: 0

    Режим чтения : Достоверность
    Использование точного потока : Да
    Отключение кэша аудио : Да
    Использование указателей C2 : Нет

    Коррекция смещения при чтении : 6
    Способность читать области Lead-in и Lead-out : Нет
    Заполнение пропущенных сэмплов тишиной : Да
    Удаление блоков с тишиной в начале и конце : Нет
    При вычислениях CRC использовались нулевые сэмплы : Да
    Интерфейс : Встроенный Win32-интерфейс для Win NT/2000

    Выходной формат : Пользовательский кодировщик
    Выбранный битрейт : 1024 kBit/s
    Качество : Высокий
    Добавление ID3-тега : Нет
    Утилита сжатия : D:\soft_2\EAC\Exact Audio Copy\Flac\flac.exe
    Дополнительные параметры : -V -8 -T "Date=%year%" -T "Genre=%genre%" %source%

    TOC извлечённого CD

    Трек | Старт | Длительность | Начальный сектор | Конечный сектор
    ---------------------------------------------------------------------
    1 | 0:00.00 | 3:19.50 | 0 | 14974
    2 | 3:19.50 | 5:18.02 | 14975 | 38826
    3 | 8:37.52 | 4:57.58 | 38827 | 61159
    4 | 13:35.35 | 3:34.60 | 61160 | 77269
    5 | 17:10.20 | 3:33.42 | 77270 | 93286
    6 | 20:43.62 | 2:58.10 | 93287 | 106646
    7 | 23:41.72 | 3:54.63 | 106647 | 124259
    8 | 27:36.60 | 2:45.30 | 124260 | 136664
    9 | 30:22.15 | 4:19.50 | 136665 | 156139
    10 | 34:41.65 | 5:45.40 | 156140 | 182054
    11 | 40:27.30 | 3:11.02 | 182055 | 196381
    12 | 43:38.32 | 7:30.20 | 196382 | 230151
    13 | 51:08.52 | 3:12.23 | 230152 | 244574
    14 | 54:21.00 | 4:25.50 | 244575 | 264499
    15 | 58:46.50 | 4:37.72 | 264500 | 285346
    16 | 63:24.47 | 3:34.10 | 285347 | 301406

    Характеристики диапазона извлечения и сообщения об ошибках

    Выбранный диапазон

    Имя файла E:\Музіка!\from EAC\Мертвий Півень\Мертвий Півень - 1989 - Вибране - 1997.wav

    Пиковый уровень 100.0 %
    Скорость извлечения 5.0 X
    Качество диапазона 100.0 %
    CRC теста DB4518A4
    CRC копии DB4518A4
    Копирование... OK

    Ошибок не произошло

    AccurateRip: сводка

    Трек 1 отсутствует в базе данных
    Трек 2 отсутствует в базе данных
    Трек 3 отсутствует в базе данных
    Трек 4 отсутствует в базе данных
    Трек 5 отсутствует в базе данных
    Трек 6 отсутствует в базе данных
    Трек 7 отсутствует в базе данных
    Трек 8 отсутствует в базе данных
    Трек 9 отсутствует в базе данных
    Трек 10 отсутствует в базе данных
    Трек 11 отсутствует в базе данных
    Трек 12 отсутствует в базе данных
    Трек 13 отсутствует в базе данных
    Трек 14 отсутствует в базе данных
    Трек 15 отсутствует в базе данных
    Трек 16 отсутствует в базе данных

    Ни одного трека нет в базе AccurateRip

    Конец отчёта

    ==== Контрольная сумма отчёта 1ED29CC746CA4C65CCCA369F589FB2E72C34092AEA402F267E3BEBA356CF07A6 ====
    Спектр
    Мертвий Півень:
      Михайло Барбара - спів (1, 3, 4, 5, 6, 7, 8, 10, 11, 12, 13, 14), сопілка (10)
      Ярина якуб'як - спів (2, 3, 9), бекінг-вокал (1, 4, 5, 8, 14), дримба та різна перкусія (3, 12, 14); фортепіано (2)
      Любко Футорський - спів (1, 6, 15, 16), акустична гітара (1)
      Роман Чайка - електрогітари (4, 6, 7, 9, 10, 11, 12, 13, 14, 15, 16), акустична гітара (1, 2, 3, 5, 8), бекінг-вокал (1, 4)
      Юрко Чопик - акустична гітара (3, 4, 5, 6, 7, 9, 10, 11, 12, 13, 14, 15, 16), електрогітара (8), бекінг-вокал (4)
      Олег - Джон - Сук - бас (10, 11, 12, 13, 14, 15, 16)
      Серафим Поздняков - барабани (4, 5, 6, 7, 8, 9)
      Андрій П'ятаков - барабани (10, 11, 12)
      Вадим Балаян - барабани (13, 14, 15, 16)
      Роман Рось - спів (1), скрипка (2, 3, 9)


    Запрошені музиканти:
      Дмитро Данилишин (Дімич) - бас (4, 5, 6, 7, 8, 9)
      Андрій Підківка - флейта (2)
      Паша Крохмальов ("Брати Гадюкіни") - фортепіано (7)
      Олег Розумовський - труба (7)

    Тривалість: 01:06:59
    Мова: українська, латинська (13)
    Бітрейт: 760 кб/с
    1997 - Il Testamento


      01. Плач
      02. Трава
      03. Агов, мої маленькі чортенята
      04. Алхімія
      05. Пастух Пустай, поет, баронський син
      06. Сестро
      07. Пісня 551
      08. Франсуа
      09. Бомба
      10. Il Testamento
      11. Ніжність (bonus track)
    EAC log
    Exact Audio Copy V1.0 beta 3 from 29. August 2011

    Отчёт EAC об извлечении, выполненном 12. марта 2012, 22:21

    Мертвий Півень / Il Testamento

    Дисковод: PHILIPS SPD2519T Adapter: 2 ID: 0

    Режим чтения : Достоверность
    Использование точного потока : Да
    Отключение кэша аудио : Да
    Использование указателей C2 : Нет

    Коррекция смещения при чтении : 6
    Способность читать области Lead-in и Lead-out : Нет
    Заполнение пропущенных сэмплов тишиной : Да
    Удаление блоков с тишиной в начале и конце : Нет
    При вычислениях CRC использовались нулевые сэмплы : Да
    Интерфейс : Встроенный Win32-интерфейс для Win NT/2000

    Выходной формат : Пользовательский кодировщик
    Выбранный битрейт : 1024 kBit/s
    Качество : Высокий
    Добавление ID3-тега : Нет
    Утилита сжатия : D:\soft_2\EAC\Exact Audio Copy\Flac\flac.exe
    Дополнительные параметры : -V -8 -T "Date=%year%" -T "Genre=%genre%" %source%

    TOC извлечённого CD

    Трек | Старт | Длительность | Начальный сектор | Конечный сектор
    ---------------------------------------------------------------------
    1 | 0:00.00 | 3:33.60 | 0 | 16034
    2 | 3:33.60 | 3:40.23 | 16035 | 32557
    3 | 7:14.08 | 5:51.12 | 32558 | 58894
    4 | 13:05.20 | 3:01.13 | 58895 | 72482
    5 | 16:06.33 | 6:23.27 | 72483 | 101234
    6 | 22:29.60 | 3:11.58 | 101235 | 115617
    7 | 25:41.43 | 5:03.60 | 115618 | 138402
    8 | 30:45.28 | 4:25.00 | 138403 | 158277
    9 | 35:10.28 | 2:24.70 | 158278 | 169147
    10 | 37:35.23 | 3:11.00 | 169148 | 183472
    11 | 40:46.23 | 5:42.37 | 183473 | 209159

    Характеристики диапазона извлечения и сообщения об ошибках

    Выбранный диапазон

    Имя файла E:\Музіка!\from EAC\Мертвий Півень - Il Testamento.wav

    Пиковый уровень 100.0 %
    Скорость извлечения 6.9 X
    Качество диапазона 99.9 %
    CRC теста 4E0E75ED
    CRC копии 4E0E75ED
    Копирование... OK

    Ошибок не произошло

    AccurateRip: сводка

    Трек 1 отсутствует в базе данных
    Трек 2 отсутствует в базе данных
    Трек 3 отсутствует в базе данных
    Трек 4 отсутствует в базе данных
    Трек 5 отсутствует в базе данных
    Трек 6 отсутствует в базе данных
    Трек 7 отсутствует в базе данных
    Трек 8 отсутствует в базе данных
    Трек 9 отсутствует в базе данных
    Трек 10 отсутствует в базе данных
    Трек 11 отсутствует в базе данных

    Ни одного трека нет в базе AccurateRip

    Конец отчёта

    ==== Контрольная сумма отчёта C6513D6B3A108DEE34EB18A28FE0018A1ACA96DC584E70BED67A3F229ABBD74A ====
    Спектр
    Мертвий Півень:
      Михайло Барбара - вокал, ефекти голосом, сопілка
      Роман Чайка - гітари, бек-вокал
      Юрко Чопик - акустична гітара, бек-вокал
      Олег Джон Сук - бас, бек-вокал
      Вадим Балаян - барабани, бек-вокал
      Серафим Поздняков - барабани (6, 11), перкусія (8, 10)
      крім нас співають і танцюють: Тарас Чубай (6), Марко Андрейчик

    Тривалість: 00:46:29
    Мова: українська, латинська (10)
    Бітрейт: 861 кб/с
    1998 - Шабадабада


      01. Шабадабада
      02. Над морем
      03. Пісня 551
      04. Поцілунок
      05. Карколомні перевтілення
      06. Гобелен
      07. Холодно
      08. Б'ютіфул Карпати
      09. Квазіамор (Тарантіно мікс)
      10. Птахорізка
      11. Літо буде '98
      12. Ластівки
      13. Садок вишневий
      14. Вона '98
      15. Реветастогне
      16. Міський бог Ерос
      17. Старенький трамвай
      18. Франсуа (болгарською)
      19. Думка (брудний мікс)
    EAC log
    Exact Audio Copy V1.0 beta 3 from 29. August 2011

    Отчёт EAC об извлечении, выполненном 1. мая 2013, 21:03

    Мертвий Півень / Шабадабада

    Дисковод: PHILIPS SPD2519T Adapter: 2 ID: 0

    Режим чтения : Достоверность
    Использование точного потока : Да
    Отключение кэша аудио : Да
    Использование указателей C2 : Нет

    Коррекция смещения при чтении : 6
    Способность читать области Lead-in и Lead-out : Нет
    Заполнение пропущенных сэмплов тишиной : Да
    Удаление блоков с тишиной в начале и конце : Нет
    При вычислениях CRC использовались нулевые сэмплы : Да
    Интерфейс : Встроенный Win32-интерфейс для Win NT/2000

    Выходной формат : Пользовательский кодировщик
    Выбранный битрейт : 1024 kBit/s
    Качество : Высокий
    Добавление ID3-тега : Нет
    Утилита сжатия : D:\soft_2\EAC\Exact Audio Copy\Flac\flac.exe
    Дополнительные параметры : -V -8 -T "Date=%year%" -T "Genre=%genre%" %source%

    TOC извлечённого CD

    Трек | Старт | Длительность | Начальный сектор | Конечный сектор
    ---------------------------------------------------------------------
    1 | 0:00.00 | 3:38.59 | 0 | 16408
    2 | 3:38.59 | 2:34.29 | 16409 | 27987
    3 | 6:13.13 | 5:03.70 | 27988 | 50782
    4 | 11:17.08 | 4:12.69 | 50783 | 69751
    5 | 15:30.02 | 4:11.58 | 69752 | 88634
    6 | 19:41.60 | 3:21.33 | 88635 | 103742
    7 | 23:03.18 | 4:35.55 | 103743 | 124422
    8 | 27:38.73 | 2:37.02 | 124423 | 136199
    9 | 30:16.00 | 1:47.08 | 136200 | 144232
    10 | 32:03.08 | 2:21.38 | 144233 | 154845
    11 | 34:24.46 | 3:47.52 | 154846 | 171922
    12 | 38:12.23 | 1:49.40 | 171923 | 180137
    13 | 40:01.63 | 2:45.28 | 180138 | 192540
    14 | 42:47.16 | 3:15.57 | 192541 | 207222
    15 | 46:02.73 | 2:27.41 | 207223 | 218288
    16 | 48:30.39 | 5:10.47 | 218289 | 241585
    17 | 53:41.11 | 2:56.32 | 241586 | 254817
    18 | 56:37.43 | 3:51.09 | 254818 | 272151
    19 | 60:28.52 | 3:03.04 | 272152 | 285880

    Характеристики диапазона извлечения и сообщения об ошибках

    Выбранный диапазон

    Имя файла E:\Музіка!\from EAC\шабадабада\Мертвий Півень - Шабадабада.wav

    Пиковый уровень 87.1 %
    Скорость извлечения 0.3 X
    Качество диапазона 99.9 %
    CRC теста C1A70A55
    CRC копии C1A70A55
    Копирование... OK

    Ошибок не произошло

    AccurateRip: сводка

    Трек 1 отсутствует в базе данных
    Трек 2 отсутствует в базе данных
    Трек 3 отсутствует в базе данных
    Трек 4 отсутствует в базе данных
    Трек 5 отсутствует в базе данных
    Трек 6 отсутствует в базе данных
    Трек 7 отсутствует в базе данных
    Трек 8 отсутствует в базе данных
    Трек 9 отсутствует в базе данных
    Трек 10 отсутствует в базе данных
    Трек 11 отсутствует в базе данных
    Трек 12 отсутствует в базе данных
    Трек 13 отсутствует в базе данных
    Трек 14 отсутствует в базе данных
    Трек 15 отсутствует в базе данных
    Трек 16 отсутствует в базе данных
    Трек 17 отсутствует в базе данных
    Трек 18 отсутствует в базе данных
    Трек 19 отсутствует в базе данных

    Ни одного трека нет в базе AccurateRip

    Конец отчёта

    ==== Контрольная сумма отчёта ED9FC91A32AABED13F2F3363CE6B031CA64797E83628791CD6B6D6F75044DA9D ====
    Спектр
    Мертвий Півень є:
      Михайло Барбара - голоси
      Любомир Футорський - голоси
      Ярмна Якуб'як - голоси, перкусія
      Роман Чайка - гітари
      Юрій Чопик - акустичні гітари
      Олег - Джон - Сук - бас, клавішні, гітара (місцями)
      Вадим Балаян - барабани


    Запрошені:
      Юрій Дуда - Ensoniq MR61
      Андрій Степанов - саксофони
      Марко Андрейчик - підспівки

    Тривалість: 01:03:32
    Мова: українська, болгарська (18)
    Бітрейт: 830 кб/с
    2003 - Афродизіяки (live)


      01. Наша зима
      02. Джульбарс
      03. Чуєш, мила
      04. Музика, що пішла
      05. Переваги окупаційного режиму
      06. Біла квітка
      07. Карколомні перевтілення
      08. Не від того я помру
      09. Карусель
      10. Пісня 551
      11. Душко моя
      12. Літо буде
      13. Oh my dear Ukraine
    EAC log
    Exact Audio Copy V1.0 beta 3 from 29. August 2011

    Отчёт EAC об извлечении, выполненном 29. декабря 2011, 16:36

    Віктор Морозов / Мертвий Півень / Афродизіяки (live)

    Дисковод: PHILIPS SPD2519T Adapter: 2 ID: 0

    Режим чтения : Достоверность
    Использование точного потока : Да
    Отключение кэша аудио : Да
    Использование указателей C2 : Нет

    Коррекция смещения при чтении : 6
    Способность читать области Lead-in и Lead-out : Нет
    Заполнение пропущенных сэмплов тишиной : Да
    Удаление блоков с тишиной в начале и конце : Нет
    При вычислениях CRC использовались нулевые сэмплы : Да
    Интерфейс : Встроенный Win32-интерфейс для Win NT/2000

    Выходной формат : Пользовательский кодировщик
    Выбранный битрейт : 1024 kBit/s
    Качество : Высокий
    Добавление ID3-тега : Нет
    Утилита сжатия : D:\soft_2\EAC\Exact Audio Copy\Flac\flac.exe
    Дополнительные параметры : -V -8 -T "Date=%year%" -T "Genre=%genre%" %source%

    TOC извлечённого CD

    Трек | Старт | Длительность | Начальный сектор | Конечный сектор
    ---------------------------------------------------------------------
    1 | 0:00.00 | 2:17.73 | 0 | 10347
    2 | 2:17.73 | 5:37.11 | 10348 | 35633
    3 | 7:55.09 | 2:54.00 | 35634 | 48683
    4 | 10:49.09 | 3:06.00 | 48684 | 62633
    5 | 13:55.09 | 4:08.52 | 62634 | 81285
    6 | 18:03.61 | 4:40.23 | 81286 | 102308
    7 | 22:44.09 | 2:52.12 | 102309 | 115220
    8 | 25:36.21 | 2:24.63 | 115221 | 126083
    9 | 28:01.09 | 3:22.68 | 126084 | 141301
    10 | 31:24.02 | 3:00.67 | 141302 | 154868
    11 | 34:24.69 | 2:34.50 | 154869 | 166468
    12 | 36:59.44 | 3:11.25 | 166469 | 180818
    13 | 40:10.69 | 3:32.52 | 180819 | 196770

    Характеристики диапазона извлечения и сообщения об ошибках

    Выбранный диапазон

    Имя файла E:\Музіка!\from EAC\Віктор Морозов , Мертвий Півень - Афродизіяки (live).wav

    Пиковый уровень 100.0 %
    Скорость извлечения 7.3 X
    Качество диапазона 100.0 %
    CRC теста 69DA9015
    CRC копии 69DA9015
    Копирование... OK

    Ошибок не произошло

    Конец отчёта

    ==== Контрольная сумма отчёта FAC2D700B953708E9D709146247ECAC222777EF0BC91510DE1F8DD9499DBB1B0 ====
    Спектр
    Виконавці:
      Морозов
      Барбара
      Чайка
      "Джон"
      Чопик
      Небесний
      Надольський


    Тривалість: 00:43:44
    Мова: українська
    Бітрейт: 944 кб/с
    2003 - Українська колекція


      01. Beautifull Карпати
      02. Агов, мої маленькі чортенята
      03. Реве та стогне
      04. Пастух Пустай, поет, баронський син
      05. Київський триптих
      06. Холодно
      07. Дидактична вистава в театрі Богуславського
      08. Осіннє
      09. Плач
      10. Пісня 551
      11. Любовний хід по вулиці Радянській
      12. Ієронім Босх XX
      13. Країна дітей
      14. Літо буде
      15. Франсуа
      16. Карколомні перевтілення
      17. Трава
      18. Ми помрем не в Парижі
    EAC log
    Exact Audio Copy V1.0 beta 3 from 29. August 2011

    Отчёт EAC об извлечении, выполненном 13. января 2014, 22:20

    Мертвий Півень / Українська колекція

    Дисковод: HL-DT-STDVD-RAM GSA-H58N Adapter: 0 ID: 0

    Режим чтения : Достоверность
    Использование точного потока : Да
    Отключение кэша аудио : Да
    Использование указателей C2 : Нет

    Коррекция смещения при чтении : 102
    Способность читать области Lead-in и Lead-out : Нет
    Заполнение пропущенных сэмплов тишиной : Да
    Удаление блоков с тишиной в начале и конце : Нет
    При вычислениях CRC использовались нулевые сэмплы : Да
    Интерфейс : Встроенный Win32-интерфейс для Win NT/2000

    Выходной формат : Пользовательский кодировщик
    Выбранный битрейт : 1024 kBit/s
    Качество : Высокий
    Добавление ID3-тега : Нет
    Утилита сжатия : D:\soft_2\EAC\Exact Audio Copy\Flac\flac.exe
    Дополнительные параметры : -V -8 -T "Date=%year%" -T "Genre=%genre%" %source%

    TOC извлечённого CD

    Трек | Старт | Длительность | Начальный сектор | Конечный сектор
    ---------------------------------------------------------------------
    1 | 0:00.00 | 2:15.15 | 0 | 10139
    2 | 2:15.15 | 5:50.15 | 10140 | 36404
    3 | 8:05.30 | 2:26.74 | 36405 | 47428
    4 | 10:32.29 | 6:22.54 | 47429 | 76132
    5 | 16:55.08 | 2:51.01 | 76133 | 88958
    6 | 19:46.09 | 4:35.60 | 88959 | 109643
    7 | 24:21.69 | 2:42.30 | 109644 | 121823
    8 | 27:04.24 | 2:42.74 | 121824 | 134047
    9 | 29:47.23 | 3:31.59 | 134048 | 149931
    10 | 33:19.07 | 5:04.28 | 149932 | 172759
    11 | 38:23.35 | 4:16.59 | 172760 | 192018
    12 | 42:40.19 | 3:36.67 | 192019 | 208285
    13 | 46:17.11 | 5:16.30 | 208286 | 232015
    14 | 51:33.41 | 3:47.45 | 232016 | 249085
    15 | 55:21.11 | 3:50.74 | 249086 | 266409
    16 | 59:12.10 | 4:11.46 | 266410 | 285280
    17 | 63:23.56 | 3:38.60 | 285281 | 301690
    18 | 67:02.41 | 4:53.16 | 301691 | 323681

    Характеристики диапазона извлечения и сообщения об ошибках

    Выбранный диапазон

    Имя файла E:\Музіка!\from EAC\Мертвий Півень - Українська колекція.wav

    Пиковый уровень 100.0 %
    Скорость извлечения 3.1 X
    Качество диапазона 99.9 %
    CRC теста 9CFB6FC3
    CRC копии 9CFB6FC3
    Копирование... OK

    Ошибок не произошло

    AccurateRip: сводка

    Трек 1 : извлечено точно (доверие 1) [03A9D201] (AR v2)
    Трек 2 : извлечено точно (доверие 1) [EF719759] (AR v2)
    Трек 3 : извлечено точно (доверие 1) [115DE0DB] (AR v2)
    Трек 4 : извлечено точно (доверие 1) [11DC7E76] (AR v2)
    Трек 5 : извлечено точно (доверие 1) [0043FDD5] (AR v2)
    Трек 6 : извлечено точно (доверие 1) [B34C5CFE] (AR v2)
    Трек 7 : извлечено точно (доверие 1) [3BAA83D3] (AR v2)
    Трек 8 : извлечено точно (доверие 1) [BF168E24] (AR v2)
    Трек 9 : извлечено точно (доверие 1) [9D0BF0A5] (AR v2)
    Трек 10 : извлечено точно (доверие 1) [9266BED4] (AR v2)
    Трек 11 : извлечено точно (доверие 1) [426D97F7] (AR v2)
    Трек 12 : извлечено точно (доверие 1) [3D6BDBA2] (AR v2)
    Трек 13 : извлечено точно (доверие 1) [AE74A3E8] (AR v2)
    Трек 14 : извлечено точно (доверие 1) [7768002F] (AR v2)
    Трек 15 : извлечено точно (доверие 1) [5719C9D3] (AR v2)
    Трек 16 : извлечено точно (доверие 1) [5A75DE70] (AR v2)
    Трек 17 : извлечено точно (доверие 1) [66A9DB7C] (AR v2)
    Трек 18 : извлечено точно (доверие 1) [82EBBC7B] (AR v2)

    Все треки извлечены точно

    Конец отчёта

    ==== Контрольная сумма отчёта 0D4CA94CAF2DF5FC9299E1B3EA51301F6C818680E7A08CC62DF1DFF3B51CCB25 ====
    Спектр
    Тривалість: 01:11:56
    Мова: українська
    Бітрейт: 858 кб/с
    2006 - Пісні Мертвого Півня


      01. AND EVERYBODY FUCKS YOU (Сто баксів на місяць - і всі тебе...)
      02. WITHOUT YOU (Знову, курва, радіо, телебачення, преса. Влада собі як влада: суцільні бандити.)
      03. OLD SOLDIER IS VERY DRUNK
      04. ABSOLUTELY VODKA (Мені по цимбалах...)
      05. AND THIRD ANGEL SOUNDED (Брат! Піва кончілась, ти прєдставляєш? Піва кончілась, жена ушла!)
      06. WELCOME TO MY FOOLISH DREAMLAND (Нас не повинні зривати вранці будильники.)
      07. BOMBING NEW YORK CITY (...Приготуватись до бомбардування)
      08. GIRL YOU WILL BE A WOMAN SOON (прокрадаюся в її сни, дякую дякуючи за нагоду снитися...)
      09. SIE KONNEN DEN COMPUTER JETZT AUSSCHALTEN НЕ ЗАБУДЬТЕ ВЫКЛЮЧИТЬ ТЕЛЕВИЗОР. НА ДОБРАНІЧ, МАЛЯТА, НАДОБРАНІЧ, НА СЬОГОДНІ БІЛЬШЕ НОВИН НЕМАЄ
      10. LIFE IS A LONG SONG (Так, я справді не боюся сказати, чого я боюся)
      11. Bonus track - З БІОГРАФІЇ ПІЛОТА
    EAC log
    Exact Audio Copy V1.0 beta 3 from 29. August 2011

    Отчёт EAC об извлечении, выполненном 14. мая 2012, 18:50

    Мертвий Півень / Пісні Мертвого Півня

    Дисковод: PHILIPS SPD2519T Adapter: 2 ID: 0

    Режим чтения : Достоверность
    Использование точного потока : Да
    Отключение кэша аудио : Да
    Использование указателей C2 : Нет

    Коррекция смещения при чтении : 6
    Способность читать области Lead-in и Lead-out : Нет
    Заполнение пропущенных сэмплов тишиной : Да
    Удаление блоков с тишиной в начале и конце : Нет
    При вычислениях CRC использовались нулевые сэмплы : Да
    Интерфейс : Встроенный Win32-интерфейс для Win NT/2000

    Выходной формат : Пользовательский кодировщик
    Выбранный битрейт : 1024 kBit/s
    Качество : Высокий
    Добавление ID3-тега : Нет
    Утилита сжатия : D:\soft_2\EAC\Exact Audio Copy\Flac\flac.exe
    Дополнительные параметры : -V -8 -T "Date=%year%" -T "Genre=%genre%" %source%

    TOC извлечённого CD

    Трек | Старт | Длительность | Начальный сектор | Конечный сектор
    ---------------------------------------------------------------------
    1 | 0:00.00 | 4:11.43 | 0 | 18867
    2 | 4:11.43 | 4:48.49 | 18868 | 40516
    3 | 9:00.17 | 5:41.72 | 40517 | 66163
    4 | 14:42.14 | 3:53.17 | 66164 | 83655
    5 | 18:35.31 | 3:57.33 | 83656 | 101463
    6 | 22:32.64 | 4:12.39 | 101464 | 120402
    7 | 26:45.28 | 4:37.32 | 120403 | 141209
    8 | 31:22.60 | 4:35.37 | 141210 | 161871
    9 | 35:58.22 | 6:27.40 | 161872 | 190936
    10 | 42:25.62 | 7:50.30 | 190937 | 226216
    11 | 50:16.17 | 5:11.50 | 226217 | 249591

    Характеристики диапазона извлечения и сообщения об ошибках

    Выбранный диапазон

    Имя файла E:\Музіка!\from EAC\Мертвий Півень - Пісні Мертвого Півня (2006)\Мертвий Півень - Пісні Мертвого Півня.wav

    Пиковый уровень 100.0 %
    Скорость извлечения 4.3 X
    Качество диапазона 100.0 %
    CRC теста 85CBAB2B
    CRC копии 85CBAB2B
    Копирование... OK

    Ошибок не произошло

    AccurateRip: сводка

    Трек 1 отсутствует в базе данных
    Трек 2 отсутствует в базе данных
    Трек 3 отсутствует в базе данных
    Трек 4 отсутствует в базе данных
    Трек 5 отсутствует в базе данных
    Трек 6 отсутствует в базе данных
    Трек 7 отсутствует в базе данных
    Трек 8 отсутствует в базе данных
    Трек 9 отсутствует в базе данных
    Трек 10 отсутствует в базе данных
    Трек 11 отсутствует в базе данных

    Ни одного трека нет в базе AccurateRip

    Конец отчёта

    ==== Контрольная сумма отчёта F1E67B212F942E696801D518FF01DD2E13EEDB79AFC3C086978E522A2F65956D ====
    Спектр
    Виконавці:
      Барабани - Сергій "Ґейтс" Балалаєв
      Ґітари - maryan_dirtyn
      Ґітари - Роман "Сіґал" Чайка
      Ґітари - Юрко Чопик
      Бас-ґітари, клавішні - Олег "Джон" Сук
      Голоси - Михайло "Місько" Барбара

    Тривалість: 00:55:28
    Мова: українська
    Бітрейт: 950 кб/с
    2008 - Вибраний Народом


      01. Чуєш, мила
      02. Агов, мої маленькі чортенята
      03. Б'ютифул Карпати
      04. Коли ти смієшся...
      05. Ми помрем не в Парижі
      06. Переваги окупаційного режиму
      07. Поцілунок
      08. End everybody fucks you
      09. Without you
      10. Гобелен
      11. Гуцулка Ксеня
      12. Франсуа
      13. Старенький Харлєй
      14. Ето
      Бонус: Холодно (відео-кліп)
    EAC log
    Exact Audio Copy V1.0 beta 3 from 29. August 2011

    Отчёт EAC об извлечении, выполненном 15. мая 2012, 0:06

    Мертвий Півень / Вибраний Народом.

    Дисковод: PHILIPS SPD2519T Adapter: 2 ID: 0

    Режим чтения : Достоверность
    Использование точного потока : Да
    Отключение кэша аудио : Да
    Использование указателей C2 : Нет

    Коррекция смещения при чтении : 6
    Способность читать области Lead-in и Lead-out : Нет
    Заполнение пропущенных сэмплов тишиной : Да
    Удаление блоков с тишиной в начале и конце : Нет
    При вычислениях CRC использовались нулевые сэмплы : Да
    Интерфейс : Встроенный Win32-интерфейс для Win NT/2000

    Выходной формат : Пользовательский кодировщик
    Выбранный битрейт : 1024 kBit/s
    Качество : Высокий
    Добавление ID3-тега : Нет
    Утилита сжатия : D:\soft_2\EAC\Exact Audio Copy\Flac\flac.exe
    Дополнительные параметры : -V -8 -T "Date=%year%" -T "Genre=%genre%" %source%

    TOC извлечённого CD

    Трек | Старт | Длительность | Начальный сектор | Конечный сектор
    ---------------------------------------------------------------------
    1 | 0:00.00 | 3:12.29 | 0 | 14428
    2 | 3:12.29 | 5:14.16 | 14429 | 37994
    3 | 8:26.45 | 3:01.01 | 37995 | 51570
    4 | 11:27.46 | 2:22.17 | 51571 | 62237
    5 | 13:49.63 | 4:55.31 | 62238 | 84393
    6 | 18:45.19 | 4:07.52 | 84394 | 102970
    7 | 22:52.71 | 4:08.61 | 102971 | 121631
    8 | 27:01.57 | 4:12.22 | 121632 | 140553
    9 | 31:14.04 | 5:10.47 | 140554 | 163850
    10 | 36:24.51 | 3:25.38 | 163851 | 179263
    11 | 39:50.14 | 3:54.15 | 179264 | 196828
    12 | 43:44.29 | 3:52.18 | 196829 | 214246
    13 | 47:36.47 | 4:01.03 | 214247 | 232324
    14 | 51:37.50 | 5:08.06 | 232325 | 255430
    15 | 59:17.56 | 5:24.22 | 266831 | 291152

    Характеристики диапазона извлечения и сообщения об ошибках

    Выбранный диапазон

    Имя файла E:\Музіка!\from EAC\Мертвий Півень - Вибраний Народом..wav

    Пиковый уровень 97.7 %
    Скорость извлечения 4.4 X
    Качество диапазона 100.0 %
    CRC теста D2503E4D
    CRC копии D2503E4D
    Копирование... OK

    Ошибок не произошло

    AccurateRip: сводка

    Трек 1 отсутствует в базе данных
    Трек 2 отсутствует в базе данных
    Трек 3 отсутствует в базе данных
    Трек 4 отсутствует в базе данных
    Трек 5 отсутствует в базе данных
    Трек 6 отсутствует в базе данных
    Трек 7 отсутствует в базе данных
    Трек 8 отсутствует в базе данных
    Трек 9 отсутствует в базе данных
    Трек 10 отсутствует в базе данных
    Трек 11 отсутствует в базе данных
    Трек 12 отсутствует в базе данных
    Трек 13 отсутствует в базе данных
    Трек 14 отсутствует в базе данных

    Ни одного трека нет в базе AccurateRip

    Конец отчёта

    ==== Контрольная сумма отчёта 743BF2483595810E3AA9910C9BC51AF8E39C8C0F75055532790DD5A3A913811F ====
    Спектр
    Технічні характеристики відео
    Тривалість:00:04:38
    кодек: MPEG 1
    розмір кадру:352x288 (AR 4:3)
    бітрейт:1150kbps

    Аудіо:
    мова: українська
    кодек: MPEG
    бітрейт:256kbps
    Скріншоти:
    Виконавці:
      Гітара - Роман Чайка
      Бас-гітара - Олег "Джон" Сук
      Гітара - Юрко Чопик
      Гітара - maryan_dirtyn
      Барабани - Олексій Слободян
      Голоси - Місько Барбара, Каша Сальцова

    Тривалість: 00:56:46
    Мова: українська
    Бітрейт: 975 кб/с
    2008 - Кримінальні сонети


      01. Азарт
      02. Азарт
      03. Постріл
      04. Постріл
      05. Життєпис
      06. Життєпис
      07. Ніжність
      08. Ніжність
      09. Мафія
      10. Мафія
    EAC log
    Exact Audio Copy V1.0 beta 3 from 29. August 2011

    Отчёт EAC об извлечении, выполненном 26. апреля 2012, 14:40

    Мертвий Півень & Юрій Андрухович / Кримінальні сонети.

    Дисковод: PHILIPS SPD2519T Adapter: 2 ID: 0

    Режим чтения : Достоверность
    Использование точного потока : Да
    Отключение кэша аудио : Да
    Использование указателей C2 : Нет

    Коррекция смещения при чтении : 6
    Способность читать области Lead-in и Lead-out : Нет
    Заполнение пропущенных сэмплов тишиной : Да
    Удаление блоков с тишиной в начале и конце : Нет
    При вычислениях CRC использовались нулевые сэмплы : Да
    Интерфейс : Встроенный Win32-интерфейс для Win NT/2000

    Выходной формат : Пользовательский кодировщик
    Выбранный битрейт : 1024 kBit/s
    Качество : Высокий
    Добавление ID3-тега : Нет
    Утилита сжатия : D:\soft_2\EAC\Exact Audio Copy\Flac\flac.exe
    Дополнительные параметры : -V -8 -T "Date=%year%" -T "Genre=%genre%" %source%

    TOC извлечённого CD

    Трек | Старт | Длительность | Начальный сектор | Конечный сектор
    ---------------------------------------------------------------------
    1 | 0:00.00 | 0:48.53 | 0 | 3652
    2 | 0:48.53 | 4:09.11 | 3653 | 22338
    3 | 4:57.64 | 0:51.20 | 22339 | 26183
    4 | 5:49.09 | 4:28.42 | 26184 | 46325
    5 | 10:17.51 | 0:51.23 | 46326 | 50173
    6 | 11:08.74 | 2:42.51 | 50174 | 62374
    7 | 13:51.50 | 0:56.50 | 62375 | 66624
    8 | 14:48.25 | 3:46.46 | 66625 | 83620
    9 | 18:34.71 | 0:49.70 | 83621 | 87365
    10 | 19:24.66 | 3:58.04 | 87366 | 105219

    Характеристики диапазона извлечения и сообщения об ошибках

    Выбранный диапазон

    Имя файла E:\Музіка!\from EAC\Мертвий півень & Юрій Андрухович - Кримінальні сонети..wav

    Пиковый уровень 95.0 %
    Скорость извлечения 2.3 X
    Качество диапазона 100.0 %
    CRC теста EA02630E
    CRC копии EA02630E
    Копирование... OK

    Ошибок не произошло

    AccurateRip: сводка

    Трек 1 отсутствует в базе данных
    Трек 2 отсутствует в базе данных
    Трек 3 отсутствует в базе данных
    Трек 4 отсутствует в базе данных
    Трек 5 отсутствует в базе данных
    Трек 6 отсутствует в базе данных
    Трек 7 отсутствует в базе данных
    Трек 8 отсутствует в базе данных
    Трек 9 отсутствует в базе данных
    Трек 10 отсутствует в базе данных

    Ни одного трека нет в базе AccurateRip

    Конец отчёта

    ==== Контрольная сумма отчёта 93662B86DBE801377435FCC336850E1012653F77C06ED54625048872C50BF3C1 ====
    Спектр
    Виконавці:
      Гітара - Роман Чайка
      Бас-гітара - Олег "Джон" Сук
      Гітара - Юрко Чопик
      Гітара - maryan_dirtyn
      Барабани - Олексій Слободян
      Голоси - Юрко Андрухович, Місько Барбара

    Тривалість: 00:23:23
    Мова: українська
    Бітрейт: 923 кб/с
    2009 - Made in ЮА


      01. Пам'ятник
      02. Seven-eleven
      03. Вольф Мессінг. Вигнання голубів
      04. Амалія Неборака (Adios muchachos...)
      05. Трубач. (Лемберзька катастрофа 1826 р.)
      06. Липи (Коло)
      07. Ми так жили немов співали джаз... (Елегія післяноворічного ранку)
      08. Calling dem
      09. Пастух пустай
      10. Бонус. Етюд з воронами
    EAC log
    Exact Audio Copy V1.0 beta 3 from 29. August 2011

    Отчёт EAC об извлечении, выполненном 15. мая 2012, 2:02

    Мертвий Півень / Made in ЮА

    Дисковод: PHILIPS SPD2519T Adapter: 2 ID: 0

    Режим чтения : Достоверность
    Использование точного потока : Да
    Отключение кэша аудио : Да
    Использование указателей C2 : Нет

    Коррекция смещения при чтении : 6
    Способность читать области Lead-in и Lead-out : Нет
    Заполнение пропущенных сэмплов тишиной : Да
    Удаление блоков с тишиной в начале и конце : Нет
    При вычислениях CRC использовались нулевые сэмплы : Да
    Интерфейс : Встроенный Win32-интерфейс для Win NT/2000

    Выходной формат : Пользовательский кодировщик
    Выбранный битрейт : 1024 kBit/s
    Качество : Высокий
    Добавление ID3-тега : Нет
    Утилита сжатия : D:\soft_2\EAC\Exact Audio Copy\Flac\flac.exe
    Дополнительные параметры : -V -8 -T "Date=%year%" -T "Genre=%genre%" %source%

    TOC извлечённого CD

    Трек | Старт | Длительность | Начальный сектор | Конечный сектор
    ---------------------------------------------------------------------
    1 | 0:00.00 | 4:22.42 | 0 | 19691
    2 | 4:22.42 | 3:39.73 | 19692 | 36189
    3 | 8:02.40 | 4:33.61 | 36190 | 56725
    4 | 12:36.26 | 3:34.58 | 56726 | 72833
    5 | 16:11.09 | 2:59.74 | 72834 | 86332
    6 | 19:11.08 | 2:44.57 | 86333 | 98689
    7 | 21:55.65 | 4:51.52 | 98690 | 120566
    8 | 26:47.42 | 4:19.21 | 120567 | 140012
    9 | 31:06.63 | 6:57.22 | 140013 | 171309
    10 | 38:04.10 | 6:53.65 | 171310 | 202349

    Характеристики диапазона извлечения и сообщения об ошибках

    Выбранный диапазон

    Имя файла E:\Музіка!\from EAC\Мертвий Півень - Made in ЮА.wav

    Пиковый уровень 99.9 %
    Скорость извлечения 7.0 X
    Качество диапазона 100.0 %
    CRC теста ECBCD441
    CRC копии ECBCD441
    Копирование... OK

    Ошибок не произошло

    AccurateRip: сводка

    Трек 1 отсутствует в базе данных
    Трек 2 отсутствует в базе данных
    Трек 3 отсутствует в базе данных
    Трек 4 отсутствует в базе данных
    Трек 5 отсутствует в базе данных
    Трек 6 отсутствует в базе данных
    Трек 7 отсутствует в базе данных
    Трек 8 отсутствует в базе данных
    Трек 9 отсутствует в базе данных
    Трек 10 отсутствует в базе данных

    Ни одного трека нет в базе AccurateRip

    Конец отчёта

    ==== Контрольная сумма отчёта 8153276F5B1BDEC8F8EE7D7CBB5565A52DEB82088AF91756658C6D35BFBA5CD6 ====
    Спектр
    Виконавці:
      Гітара - Роман Чайка
      Бас-гітара - Олег "Джон" Сук
      Гітара - Юрко Чопик
      Гітара - maryan_dirtyn
      Барабани - Олексій Слободян
      Гітари - Сергій Кондратьєв
      Голоси - Місько Барбара, Юрій Андрухович (1-7+бонус), Галина Бреславець, Іван Жадан, Артур Абрамович

    Тривалість: 00:44:58
    Мова: українська
    Бітрейт: 871 кб/с
    2011 - Радіо Афродита


      01. Ой Марічко, чичері
      02. А ми удвох (з Андрієм Середою)
      03. Гуцулка Ксеня
      04. Ми хлопці з Бандерштадту
      05. Минає день, минає ніч
      06. Над морем
      07. Панно Інно
      08. Машинґвери
      09. Я помру від застуди (Вальс)
      10. Шахтарочка
    EAC log
    Exact Audio Copy V1.0 beta 3 from 29. August 2011

    Отчёт EAC об извлечении, выполненном 14. мая 2012, 20:24

    Мертвий Півень / Радіо Афродита

    Дисковод: HL-DT-STDVD-RAM GSA-H58N Adapter: 0 ID: 0

    Режим чтения : Достоверность
    Использование точного потока : Да
    Отключение кэша аудио : Да
    Использование указателей C2 : Нет

    Коррекция смещения при чтении : 102
    Способность читать области Lead-in и Lead-out : Нет
    Заполнение пропущенных сэмплов тишиной : Да
    Удаление блоков с тишиной в начале и конце : Нет
    При вычислениях CRC использовались нулевые сэмплы : Да
    Интерфейс : Встроенный Win32-интерфейс для Win NT/2000

    Выходной формат : Пользовательский кодировщик
    Выбранный битрейт : 1024 kBit/s
    Качество : Высокий
    Добавление ID3-тега : Нет
    Утилита сжатия : D:\soft_2\EAC\Exact Audio Copy\Flac\flac.exe
    Дополнительные параметры : -V -8 -T "Date=%year%" -T "Genre=%genre%" %source%

    TOC извлечённого CD

    Трек | Старт | Длительность | Начальный сектор | Конечный сектор
    ---------------------------------------------------------------------
    1 | 0:00.00 | 3:43.48 | 0 | 16772
    2 | 3:43.48 | 3:44.72 | 16773 | 33644
    3 | 7:28.45 | 3:50.62 | 33645 | 50956
    4 | 11:19.32 | 4:13.56 | 50957 | 69987
    5 | 15:33.13 | 4:00.69 | 69988 | 88056
    6 | 19:34.07 | 3:05.25 | 88057 | 101956
    7 | 22:39.32 | 4:20.21 | 101957 | 121477
    8 | 26:59.53 | 4:16.54 | 121478 | 140731
    9 | 31:16.32 | 3:42.39 | 140732 | 157420
    10 | 34:58.71 | 2:34.61 | 157421 | 169031

    Характеристики диапазона извлечения и сообщения об ошибках

    Выбранный диапазон

    Имя файла E:\Музіка!\from EAC\Мертвий Півень - Радіо Афродита.wav

    Пиковый уровень 100.0 %
    Скорость извлечения 2.4 X
    Качество диапазона 99.9 %
    CRC теста 631F979B
    CRC копии 631F979B
    Копирование... OK

    Ошибок не произошло

    Конец отчёта

    ==== Контрольная сумма отчёта 762365E9A58398E621E1A2529B764EFFB5AD0D1D1E73C6B2B2CBC0C298A14669 ====
    Спектр
    Тривалість: 00:37:34
    Мова: українська
    Бітрейт: 1001 кб/с


Тривалість: 04:56:28
Мова: українська
Аудіо-кодек: FLAC
Бітрейт: 760-1001 кб/с
Джерело: Ріпи власних CD

Роздача мітить ріпи оригінальних дисків (тип ріпу image+CUE), а також скани поліграфії у якості 600 dpi.
Власне, у даній роздачі є всі альбоми Мертвого Півня, які видавались на CD.


Золотий реліз (завантажене не впливає на рейтинг)
 Трекер:    Зареєстрований   

Завантажити / скачати українську музику



відео для новачків



 Зареєстрований:   2014-01-13 22:27
 Розмір:   3.95 GB 
 Оцінка музики:   10/10 (Голосів: 13)
   
gosha.samovar 
VIP


З нами з: 08.09.10
Востаннє: 04.12.16
Повідомлень: 400

2014-01-13 22:29  
Вибачте, дещо виправив, тому перезавантажте, будь ласка, торент-файл.
civ 
VIP


З нами з: 16.02.11
Востаннє: 03.12.16
Повідомлень: 428

2014-01-14 07:22  
Це просто чудово, що правильні ріпи тепер є в одному місці! Бо самому ліньки свої диски ріпати й сканити. :-)
OSx86 
Частий відвідувач


З нами з: 15.09.12
Востаннє: 12.11.16
Повідомлень: 39

2014-11-14 11:02  
Файна коллекція, автору респект!
Михайло Хмара 
Новенький


З нами з: 13.10.16
Востаннє: 18.11.16
Повідомлень: 3

2016-10-20 12:56  
Чудовий гурт! Дякую!
Ваш часовий пояс: GMT + 2 Години

Нова тема   Відповісти