Завантажити та скачати торренти українською


Загадкова справа Бенджаміна Баттона / The Curious Case of Benjamin Button (2008) AVC

Нові коментарі

Нова тема   Відповісти
Автор Повідомлення
Drool 
VIP


З нами з: 17.04.10
Востаннє: 03.12.16
Повідомлень: 1262

2014-01-09 09:19  
Загадкова справа Бенджаміна Баттона / The Curious Case of Benjamin Button (2008) AVC

Жанр: драма, фентезі, мелодрама
Країна: США



Кінокомпанія: Paramount Pictures, The Kennedy/Marshall Company, Warner Bros. Pictures Co.
Режисер: Девід Фінчер
Актори: Бред Пітт, Кейт Бланшетт, Джулія Ормонд, Тільда Суінтон, Джейсон Флемінг, Тараджи П. Хенсон

Сюжет:
Фільм про чоловіка, який народився у віці 80 -ти років, а потім... почав молодіти. Ця людина, як і кожен з нас, не міг зупинити час. Його шлях в ХХI століття, що бере свій початок в Новому Орлеані в 1918 -му році в самому кінці Першої Світової війни, буде настільки незвичайний, що навряд чи міг мати місце в житті кого-небудь іншого. Фільм оповідає про долю унікальної людини, про людей і події, що чекають його попереду, про любов, яку він знайде і втратить, про радощі життя і смутку втрат і про те, що залишається з нами поза часом.


Тривалість: 02:46:03
Якість: AVC
Відео:
кодек:
розмір кадру: 1056x440
бітрейт: 1515 кб/с

Аудіо:
мова: українська
переклад: професійний дубльований
кодек: 5.1
бітрейт: 384 кб/с

Джерело озвучення:


Субтитри:
мова: українська (форсовані)
тип: програмні (м'які)
формат: *.srt
MediaInfo
General
Unique ID : 232432838224673141589685424192750013733 (0xAEDCEFB2A3DBEA336E49B52C7986CD25)
Complete name : /mnt/disk/Video/The.Curious.Case.of.Benjamin.Button.2008.Ukr.Dub.AVC.mkv
Format : Matroska
File size : 2.21 GiB
Duration : 2h 46mn
Overall bit rate : 1 901 Kbps
Movie name : Загадкова справа Бенджаміна Баттона / The Curious Case of Benjamin Button (2008) AVC | video by -=POTROKS=-
Encoded date : UTC 2014-01-09 06:20:53
Writing application : mkvmerge v4.8.0 ('I Got The...') сборка от Aug 22 2011 13:16:28
Writing library : libebml v1.2.0 + libmatroska v1.1.0
Cover : Yes / Yes / Yes

Video
ID : 1
Format : AVC
Format/Info : Advanced Video Codec
Format profile : [email protected]
Format settings, CABAC : Yes
Format settings, ReFrames : 16 frames
Codec ID : V_MPEG4/ISO/AVC
Duration : 2h 46mn
Bit rate : 1 515 Kbps
Width : 1 056 pixels
Height : 440 pixels
Display aspect ratio : 2.40:1
Frame rate : 23.976 fps
Color space : YUV
Chroma subsampling : 4:2:0
Bit depth : 8 bits
Scan type : Progressive
Bits/(Pixel*Frame) : 0.136
Stream size : 1.72 GiB (78%)
Title : Загадкова справа Бенджаміна Баттона / The Curious Case of Benjamin Button (2008) AVC | video by -=POTROKS=-
Writing library : core 115 r1937 aa21558
Encoding settings : cabac=1 / ref=16 / deblock=1:-2:-1 / analyse=0x3:0x133 / me=umh / subme=10 / psy=1 / psy_rd=1.00:0.10 / mixed_ref=1 / me_range=32 / chroma_me=1 / trellis=2 / 8x8dct=1 / cqm=0 / deadzone=21,11 / fast_pskip=1 / chroma_qp_offset=-3 / threads=6 / sliced_threads=0 / nr=0 / decimate=1 / interlaced=0 / bluray_compat=0 / constrained_intra=0 / bframes=8 / b_pyramid=2 / b_adapt=2 / b_bias=0 / direct=3 / weightb=1 / open_gop=0 / weightp=2 / keyint=250 / keyint_min=23 / scenecut=40 / intra_refresh=0 / rc_lookahead=60 / rc=2pass / mbtree=1 / bitrate=1515 / ratetol=1.0 / qcomp=0.60 / qpmin=0 / qpmax=69 / qpstep=4 / cplxblur=20.0 / qblur=0.5 / ip_ratio=1.40 / aq=1:1.00

Audio
ID : 2
Format : AC-3
Format/Info : Audio Coding 3
Mode extension : CM (complete main)
Codec ID : A_AC3
Duration : 2h 46mn
Bit rate mode : Constant
Bit rate : 384 Kbps
Channel(s) : 6 channels
Channel positions : Front: L C R, Side: L R, LFE
Sampling rate : 48.0 KHz
Bit depth : 16 bits
Compression mode : Lossy
Stream size : 456 MiB (20%)
Title : Рідна мова [, 5.1 ch., 384 kbps]
Language : Ukrainian

Text
ID : 3
Format : UTF-8
Codec ID : S_TEXT/UTF8
Codec ID/Info : UTF-8 Plain Text
Title : Українські (форсовані)
Language : Ukrainian
Скріншоти





Джерело:
Особиста оцінка: 10 - без зайвих вагань рекомендую всім!


 Трекер:    Зареєстрований   

Завантажити / скачати фільм українською



відео для новачків



 Зареєстрований:   2014-01-09 09:19
 Розмір:   2.21 GB 
 Оцінка фільму:   9.9/10 (Голосів: 19)
   
Ваш часовий пояс: GMT + 2 Години

Нова тема   Відповісти