Завантажити та скачати торренти українською


Ясність Б'є / All Is Bright (2013) 1080p Ukr/Eng

Нові коментарі

Нова тема   Відповісти
Автор Повідомлення
Omikron 
VIP


З нами з: 03.01.12
Востаннє: 09.12.16
Повідомлень: 298

2014-01-08 20:24  
Ясність Б'є / All Is Bright (2013) 1080p Ukr/Eng

Ясність Б'є / All Is Bright (2013) 1080p Ukr/Eng


Жанр: комедія, драма
Країна: США



Кінокомпанія: GreeneStreet Films, Sidney Kimmel Entertainment, Touchy Feely Films
Режисер: Філ Моррісон (Phil Morrison)
Актори: Пол Джаматті ( Paul Giamatti), Пол Радд (Paul Rudd), Саллі Гоукінс (Sally Hawkins), Емі Лендекер (Amy Landecker), Пітер Германн (Peter Hermann)

Сюжет:
Денніс – крадій, якого достроково звільнили з канадської в’язниці. Він неохоче погоджується продавати різдвяні ялинки зі своїм старим подільником Рене, аби заробити грошей на подарунок для своєї дочки. Вона мріє про піаніно.



Українською мовою озвучено студією Омікрон.
Подякувати за кіно, можна тут.



Тривалість: 01:47:25
Якість:
Відео:
кодек:
розмір кадру: 1920x800
бітрейт: 8 мб/с

Аудіо # 1:
мова: українська | Омікрон
переклад: багатоголосий закадровий
кодек: 5.1
бітрейт: 1509 кб/с

Аудіо # 2:
мова: англійська
переклад: оригінал
кодек: 5.1
бітрейт: 640 кб/с


Скріншоти










Звіт MediaInfo
Format : Matroska
Format version : Version 2
File size : 7.68 GiB
Duration : 1h 47mn
Overall bit rate : 10.2 Mbps
Movie name : MVO Omikron studio for UATEAM.TV
Encoded date : UTC 2014-01-05 18:46:51
Writing application : mkvmerge v2.9.0 ('Moanin'') built on May 22 2009 17:46:31
Writing library : libebml v0.7.7 + libmatroska v0.8.1

Video
ID : 1
Format : AVC
Format/Info : Advanced Video Codec
Format profile : [email protected]
Format settings, CABAC : Yes
Format settings, ReFrames : 5 frames
Codec ID : V_MPEG4/ISO/AVC
Duration : 1h 47mn
Bit rate : 8 097 Kbps
Width : 1 920 pixels
Height : 800 pixels
Display aspect ratio : 2.40:1
Frame rate mode : Constant
Frame rate : 23.976 fps
Color space : YUV
Chroma subsampling : 4:2:0
Bit depth : 8 bits
Scan type : Progressive
Bits/(Pixel*Frame) : 0.220
Stream size : 5.92 GiB (77%)
Writing library : core 133 r2334 a3ac64b
Encoding settings : cabac=1 / ref=5 / deblock=1:0:0 / analyse=0x3:0x133 / me=umh / subme=7 / psy=1 / psy_rd=1.00:0.00 / mixed_ref=1 / me_range=16 / chroma_me=1 / trellis=1 / 8x8dct=1 / cqm=0 / deadzone=21,11 / fast_pskip=0 / chroma_qp_offset=-2 / threads=12 / lookahead_threads=2 / sliced_threads=0 / nr=0 / decimate=1 / interlaced=0 / bluray_compat=0 / constrained_intra=0 / bframes=3 / b_pyramid=2 / b_adapt=1 / b_bias=0 / direct=1 / weightb=1 / open_gop=0 / weightp=2 / keyint=250 / keyint_min=23 / scenecut=40 / intra_refresh=0 / rc_lookahead=40 / rc=2pass / mbtree=1 / bitrate=8097 / ratetol=1.0 / qcomp=0.60 / qpmin=0 / qpmax=69 / qpstep=4 / cplxblur=20.0 / qblur=0.5 / ip_ratio=1.40 / aq=1:1.00
Language : English
Default : Yes
Forced : No

Audio #1
ID : 2
Format :
Format/Info : Digital Theater Systems
Mode : 16
Format settings, Endianness : Big
Codec ID : A_DTS
Duration : 1h 47mn
Bit rate mode : Constant
Bit rate : 1 509 Kbps
Channel count : 6 channels
Channel positions : Front: L C R, Side: L R, LFE
Sampling rate : 48.0 KHz
Bit depth : 24 bits
Compression mode : Lossy
Stream size : 1.13 GiB (15%)
Title : MVO Omikron studio for UATEAM.TV
Language : Ukrainian
Default : Yes
Forced : No

Audio #2
ID : 3
Format : AC-3
Format/Info : Audio Coding 3
Mode extension : CM (complete main)
Format settings, Endianness : Big
Codec ID : A_AC3
Duration : 1h 47mn
Bit rate mode : Constant
Bit rate : 640 Kbps
Channel count : 6 channels
Channel positions : Front: L C R, Side: L R, LFE
Sampling rate : 48.0 KHz
Bit depth : 16 bits
Compression mode : Lossy
Stream size : 492 MiB (6%)
Language : English
Default : No
Forced : No

Menu
00:00:00.000 : en:00:00:00.000
00:04:08.290 : en:00:04:08.290
00:12:22.825 : en:00:12:22.825
00:18:48.127 : en:00:18:48.127
00:27:04.957 : en:00:27:04.957
00:36:03.912 : en:00:36:03.912
00:41:11.761 : en:00:41:11.761
00:48:11.055 : en:00:48:11.055
00:55:49.054 : en:00:55:49.054
01:01:56.087 : en:01:01:56.087
01:06:58.765 : en:01:06:58.765
01:11:30.995 : en:01:11:30.995
01:16:56.487 : en:01:16:56.487
01:22:51.967 : en:01:22:51.967
01:32:17.407 : en:01:32:17.407
01:43:52.309 : en:01:43:52.309


Джерело:


Авторський реліз (завантажувати можна без реєстрації)
 Трекер:    Зареєстрований   

Завантажити / скачати фільм українською



відео для новачків



 Зареєстрований:   2014-01-08 20:24
 Розмір:   7.68 GB 
 Оцінка фільму:   9.3/10 (Голосів: 11)
   
Інші релізи
   Ясність Б'є / All Is Bright (2013) 720p Ukr/Eng kino.  0 / 0   5.5 GB   2014-01-10 15:34 
   Ясність Б'є / All Is Bright (2013) Omikron  4 / 0   1.45 GB   2014-01-08 19:31 
bot 
робот


З нами з: 30.09.07
Востаннє: 26.05.05
Повідомлень: 16044

2014-01-08 20:31  
Тему перенесено з Ріпи від Омікрону до форуму Фільми в HD


Omikron

Ваш часовий пояс: GMT + 2 Години

Нова тема   Відповісти