Завантажити та скачати торренти українською


Lama - Назавжди (2013) [FLAC] | Pop

Нові коментарі

Нова тема   Відповісти
Автор Повідомлення
ninenine 
Відео Гуртом - фільмокрай
Відео Гуртом - фільмокрай


З нами з: 23.10.09
Востаннє: 07.12.16
Повідомлень: 1147

2014-01-08 12:56  
Lama - Назавжди (2013) [FLAC] | Pop

Lama - Назавжди (2013) [FLAC] | Pop


Стиль: Pop-Rock
Країна, місто: Україна, Київ
Сайти: Офіційний сайт
Видавець: Artur Music
Виконавці:
Наталя Дзеньків — спів
Андрій Алексєєв — гітара
Зураб Рогава — бас-гітара
Жека Кобзарук — синтезатори
Дмитро «ZI» Супрунюк — барабани

Пісні:
    1. Лиш тільки ти
    2. Той вогонь
    3. Ангел
    4. Любов
    5. Нехай все буде так, як є
    6. Фани
    7. Де нема неправди
    8. Rock'n'Roll
    9. Не підведи
    10. Пробач
    11. Тримай
    12. Жовте поле

Тривалість: 00:43:44
Мова: українська
Аудіо-кодек: FLAC
Бітрейт: 1015 кб/с
Джерело: Файлообмінні сайти
Про альбом:
«Назавжди» — четвертий студійний альбом гурту Lama. Офіційний реліз планувався на 2 вересня 2013 року, але офіційний треклист альбому був вперше опублікований Наталією Дзеньків на Itunes 28 жовтня 2013 року. До альбому увійшли сингли: «Пробач», «Лиш тільки ти», «Не підведи» та «Ангел». Також були відзняті кліпи до цих пісень.
Звіт EAC:
Exact Audio Copy V1.0 beta 3 from 29. August 2011
Отчёт EAC об извлечении, выполненном 6. января 2014, 20:22
Lama / Назавжди...
Дисковод: TSSTcorpCDDVDW TS-L633J Adapter: 0 ID: 1
Режим чтения : Достоверность
Использование точного потока : Да
Отключение кэша аудио : Да
Использование указателей C2 : Нет
Коррекция смещения при чтении : 6
Способность читать области Lead-in и Lead-out : Нет
Заполнение пропущенных сэмплов тишиной : Да
Удаление блоков с тишиной в начале и конце : Нет
При вычислениях CRC использовались нулевые сэмплы : Да
Интерфейс : Встроенный Win32-интерфейс для Win NT/2000
Выходной формат : Пользовательский кодировщик
Выбранный битрейт : 1024 kBit/s
Качество : Высокий
Добавление ID3-тега : Нет
Утилита сжатия : C:\Program Files (x86)\Exact Audio Copy\FLAC\FLAC.EXE
Дополнительные параметры : -8 -V -T "ARTIST=%artist%" -T "TITLE=%title%" -T "ALBUM=%albumtitle%" -T "DATE=%year%" -T "TRACKNUMBER=%tracknr%" -T "GENRE=%genre%" -T "COMMENT=%comment%" -T "BAND=%albuminterpret%" -T "ALBUMARTIST=%albuminterpret%" -T "COMPOSER=%composer%" %haslyrics%--tag-from-file=LYRICS="%lyricsfile%"%haslyrics% -T "DISCNUMBER=%cdnumber%" -T "TOTALDISCS=%totalcds%" -T "TOTALTRACKS=%numtracks%" %hascover%--picture="%coverfile%"%hascover% %source% -o %dest%
TOC извлечённого CD
Трек | Старт | Длительность | Начальный сектор | Конечный сектор
---------------------------------------------------------------------
1 | 0:00.00 | 3:23.34 | 0 | 15258
2 | 3:23.34 | 3:24.63 | 15259 | 30621
3 | 6:48.22 | 3:43.36 | 30622 | 47382
4 | 10:31.58 | 4:19.22 | 47383 | 66829
5 | 14:51.05 | 3:42.68 | 66830 | 83547
6 | 18:33.73 | 3:33.11 | 83548 | 99533
7 | 22:07.09 | 3:04.41 | 99534 | 113374
8 | 25:11.50 | 3:35.53 | 113375 | 129552
9 | 28:47.28 | 3:40.10 | 129553 | 146062
10 | 32:27.38 | 3:32.14 | 146063 | 161976
11 | 35:59.52 | 4:06.33 | 161977 | 180459
12 | 40:06.10 | 3:38.31 | 180460 | 196840
Характеристики диапазона извлечения и сообщения об ошибках
Выбранный диапазон
Имя файла D:\Lama - Назавжди...2013(flac)\Lama - Назавжди....wav
Пиковый уровень 100.0 %
Скорость извлечения 2.7 X
Качество диапазона 100.0 %
CRC теста E860219F
CRC копии E860219F
Копирование... OK
Ошибок не произошло
AccurateRip: сводка
Трек 1 отсутствует в базе данных
Трек 2 отсутствует в базе данных
Трек 3 отсутствует в базе данных
Трек 4 отсутствует в базе данных
Трек 5 отсутствует в базе данных
Трек 6 отсутствует в базе данных
Трек 7 отсутствует в базе данных
Трек 8 отсутствует в базе данных
Трек 9 отсутствует в базе данных
Трек 10 отсутствует в базе данных
Трек 11 отсутствует в базе данных
Трек 12 отсутствует в базе данных
Ни одного трека нет в базе AccurateRip
Конец отчёта
==== Контрольная сумма отчёта 8E7009850988C28765517B2A4C80ACA4EB55E21F61E99C6DCC09A46B07F51BF2 ====
Індексна катра (.CUE):
REM GENRE рор
REM DATE 2013
REM DISCID 910A400C
REM COMMENT "ExactAudioCopy v1.0b3"
PERFORMER "Lama"
TITLE "Назавжди..."
FILE "Lama - Назавжди....flac" WAVE
TRACK 01 AUDIO
TITLE "Лише тільки ти"
PERFORMER "Lama"
INDEX 01 00:00:00
TRACK 02 AUDIO
TITLE "Той вогонь"
PERFORMER "Lama"
INDEX 01 03:23:34
TRACK 03 AUDIO
TITLE "Ангел"
PERFORMER "Lama"
INDEX 01 06:48:22
TRACK 04 AUDIO
TITLE "Любов"
PERFORMER "Lama"
INDEX 01 10:31:58
TRACK 05 AUDIO
TITLE "Нехай все буде так, як є"
PERFORMER "Lama"
INDEX 01 14:51:05
TRACK 06 AUDIO
TITLE "Фани"
PERFORMER "Lama"
INDEX 01 18:33:73
TRACK 07 AUDIO
TITLE "Де нема неправди"
PERFORMER "Lama"
INDEX 01 22:07:09
TRACK 08 AUDIO
TITLE "Rock'n'roll"
PERFORMER "Lama"
INDEX 01 25:11:50
TRACK 09 AUDIO
TITLE "Не підведи"
PERFORMER "Lama"
INDEX 01 28:47:28
TRACK 10 AUDIO
TITLE "Пробач"
PERFORMER "Lama"
INDEX 01 32:27:38
TRACK 11 AUDIO
TITLE "Тримай"
PERFORMER "Lama"
INDEX 01 35:59:52
TRACK 12 AUDIO
TITLE "Жовте поле"
PERFORMER "Lama"
INDEX 01 40:06:10
Звіт auCDtect Task Manager:
-----------------------

DON'T MODIFY THIS FILE

-----------------------

PERFORMER: auCDtect Task Manager, ver. 1.6.0 RC1 build 1.6.0.1
Copyright (c) 2008-2010 y-soft. All rights reserved
http://y-soft.org

ANALYZER: auCDtect: CD records authenticity detector, version 0.8.2
Copyright (c) 2004 Oleg Berngardt. All rights reserved.
Copyright (c) 2004 Alexander Djourik. All rights reserved.

FILE: Lama - Назавжди....flac
Size: 333320428 Hash: A973DDE3B52898D1781EE4419FF3E713 Accuracy: -m0
Conclusion: CDDA 100%
Signature: C001E0DA72D4246AE70BAE8019CC86A39EA3DA80



Якщо Ви справді бажаєте підтримати українське - після прослуховування, якщо музика вам сподобалась, придбайте ліцензійний диск. Підтримаймо вітчизняних виконавців!


Срібний реліз (на рейтинг впливає 50% завантаженого)
 Трекер:    Зареєстрований   

Завантажити / скачати українську музику



відео для новачків



 Зареєстрований:   2014-01-08 12:56
 Розмір:   325 MB 
 Оцінка музики:   9.3/10 (Голосів: 17)
   
viter07 
Оцифрування книг Гуртом
Оцифрування книг Гуртом


З нами з: 20.09.09
Востаннє: 05.12.16
Повідомлень: 344

2014-01-08 19:21  
Оце якраз хотів десь скачати - і тут - бац! Happy Величезне спасибі за роботу!
88mmc88 
Свій


З нами з: 21.12.09
Востаннє: 07.12.16
Повідомлень: 62

2014-01-08 22:07  
Все супер, дякую. Але фубар не бачить роділ між піснями, можна якось це виправити?
ssTAss 
Модератор музики


З нами з: 05.07.08
Востаннє: 07.12.16
Повідомлень: 10947

2014-01-08 22:51  
88mmc88 написано:
Але фубар не бачить роділ між піснями, можна якось це виправити?

шукайте причину в себе... перевірив - все нормально читається, теги всі заповнені
можливо, не до кінця завантажились файли (зробіть перевірку або видаліть існуючий торент, потім заново завантажте торент-файл з теми і вкажіть ту саму теку)

88mmc88 
Свій


З нами з: 21.12.09
Востаннє: 07.12.16
Повідомлень: 62

2014-01-09 12:53  
Перекачав, нічого не допомогло. Проблема в тому що коли відкривати файл за допомогою фубар то розділи присутні, але коли добавити папку безпосередньо в нього то він відображається одним цілим. Це не є пробламою фубара.
ssTAss 
Модератор музики


З нами з: 05.07.08
Востаннє: 07.12.16
Повідомлень: 10947

2014-01-09 14:44  
88mmc88
Ви якось визначіться, а то
88mmc88 написано:
фубар не бачить роділ між піснями

а тепер
88mmc88 написано:
коли відкривати файл за допомогою фубар то розділи присутні

???
Щодо
88mmc88 написано:
коли добавити папку безпосередньо в нього то він відображається одним цілим

то, коли додаєте всю теку, то фубар читає все - і файл куе, і файл флак, а так як флак не має вбудованого куе, то читає одним цілим
тобто, коли всю теку закидаєте, то у Вас мало б в фубарі показувати два альбоми - один по трекам, а другий цілком
можна налаштувати фубар на читання тільки куе-файлів

88mmc88 
Свій


З нами з: 21.12.09
Востаннє: 07.12.16
Повідомлень: 62

2014-01-09 16:43  
ssTAss
От якраз фубар читае CUE, і два альбоми там не показує . При чому коли стороніми програмами хочеш розділити по трекам то пише що не може знайти шлях. На мою думку "геморно" ви щось зробили. На разі інші релізи відображаються нормально.

civ 
VIP


З нами з: 16.02.11
Востаннє: 07.12.16
Повідомлень: 429

2014-01-09 19:48  
Це не є пробломею фубара, це не є пробоемою реліза. То є вашою проблемою, тобто то ви щось не те робите.
Коли ви закидуєте в фубар теку, він не додає до плейлиста файли cue. Це його поведінка за умовчанням. А от коли ви, за вашими словами, відкриваєте файл за допомогою фубар, то, скоріше за все, ви просто відкриваєте cue, а не flac. Тому і бачите нормальний трек-лист.
З релізом все в порядку. Всі файли грають.

frejo 
Новенький


З нами з: 17.10.10
Востаннє: 02.11.16
Повідомлень: 5

2014-11-01 17:09  
ненавиджу релізи образом. де ви цього навчились?
88mmc88 
Свій


З нами з: 21.12.09
Востаннє: 07.12.16
Повідомлень: 62

2014-11-01 18:27  
frejo
Як я з вами згоден!

mr.killer 
Свій


З нами з: 11.08.10
Востаннє: 03.12.16
Повідомлень: 146

2016-08-06 13:09  
Вийшла нова їхня збірка "Хіти" 2016, хтось має її?
ssTAss 
Модератор музики


З нами з: 05.07.08
Востаннє: 07.12.16
Повідомлень: 10947

2016-08-06 14:25  
mr.killer написано:
нова

Wink (2)
все старе
Ельвіра? Wide grin

Ваш часовий пояс: GMT + 2 Години

Нова тема   Відповісти