Завантажити та скачати торренти українською


Мачете вбиває / Machete Kills (2013) 720p Ukr/Eng

Нові коментарі

Нова тема   Відповісти
Автор Повідомлення
Sando7 
Відео Гуртом - запис з ТБ
Відео Гуртом - запис з ТБ


З нами з: 04.05.09
Востаннє: 03.12.16
Повідомлень: 835

2014-01-07 22:48  
Мачете вбиває / Machete Kills (2013) 720p Ukr/Eng

Мачете вбиває / Machete Kills (2013) 720p Ukr/Eng


Жанр: екшн, кримінальний, трилер
Країна: США, Росія



Кінокомпанія: Aldamisa Entertainment, 1821 Pictures, Quick Draw Productions, Demarest Films, Overnight Films.
Режисер: Роберт Родріґес / Robert Rodriguez
Актори:Денні Трехо / Danny Trejo, Мішель Родріґес / Michelle Rodriguez, Софія Верґара / Sofía Vergara, Ембер Герд / Amber Heard, Леді Ґаґа / Lady GaGa, Антоніо Бандерас / Antonio Banderas, К'юба Ґудінг мол. / Cuba Gooding Jr., Джессіка Альба / Jessica Alba, Мел Ґібсон / Mel Gibson, Чарлі Шин / Charlie Sheen та інші

Сюжет:
Мачете вербує уряд США для місії, нездійсненної для смертного. Мачете проривається до Мексики, щоб схопити божевільного лідера карального загону та ексцентричного мільярдера, який торгує зброєю. Останній плекає мрію почати війну на планеті за допомогою космічної зброї. І тільки Мачете може запобігти цьому глобальному хаосу...


Тривалість: 01:47:32
Якість:
Відео:
кодек:
розмір кадру: 1280 х 694
бітрейт: 5817 кб/с

Аудіо # 1:
мова: українська
переклад: професійний дубльований
кодек: 2.0
бітрейт: 192 кб/с

Аудіо # 2:
мова: англійська
переклад: оригінал
кодек: 5.1
бітрейт: 640 кб/с
MediaInfo
Complete name : C:\Users\Sando7\Desktop\Machete Kills (2013) 720p [Ukr,Eng] [Hurtom].mkv
Format : Matroska
Format version : Version 1
File size : 5.00 GiB
Duration : 1h 47mn
Overall bit rate : 6 651 Kbps
Movie name : Machete.Kills.2013.BluRay.720p..-CHD
Encoded date : UTC 2014-01-07 20:35:45
Writing application : mkvmerge v2.4.1 ('Use Me') built on Dec 5 2008 18:30:05
Writing library : libebml v0.7.7 + libmatroska v0.8.1

Video
ID : 1
Format : AVC
Format/Info : Advanced Video Codec
Format profile : [email protected]
Format settings, CABAC : Yes
Format settings, ReFrames : 8 frames
Codec ID : V_MPEG4/ISO/AVC
Duration : 1h 47mn
Bit rate : 5 817 Kbps
Width : 1 280 pixels
Height : 694 pixels
Display aspect ratio : 1.85:1
Frame rate mode : Constant
Frame rate : 23.976 fps
Color space : YUV
Chroma subsampling : 4:2:0
Bit depth : 8 bits
Scan type : Progressive
Bits/(Pixel*Frame) : 0.273
Stream size : 4.27 GiB (86%)
Title : [email protected]
Writing library : core 138 r2356 a1d3d17
Encoding settings : cabac=1 / ref=8 / deblock=1:-3:-3 / analyse=0x3:0x113 / me=umh / subme=10 / psy=1 / psy_rd=1.00:0.05 / mixed_ref=1 / me_range=32 / chroma_me=1 / trellis=2 / 8x8dct=1 / cqm=0 / deadzone=21,11 / fast_pskip=0 / chroma_qp_offset=-2 / threads=18 / lookahead_threads=1 / sliced_threads=0 / nr=0 / decimate=1 / interlaced=0 / bluray_compat=0 / constrained_intra=0 / bframes=5 / b_pyramid=2 / b_adapt=2 / b_bias=0 / direct=3 / weightb=1 / open_gop=0 / weightp=2 / keyint=250 / keyint_min=23 / scenecut=40 / intra_refresh=0 / rc=2pass / mbtree=0 / bitrate=5817 / ratetol=1.0 / qcomp=0.70 / qpmin=0 / qpmax=69 / qpstep=4 / cplxblur=20.0 / qblur=0.5 / ip_ratio=1.40 / pb_ratio=1.30 / aq=2:1.00
Language : English
Default : Yes
Forced : No

Audio #1
ID : 2
Format : AC-3
Format/Info : Audio Coding 3
Mode extension : CM (complete main)
Format settings, Endianness : Big
Codec ID : A_AC3
Duration : 1h 47mn
Bit rate mode : Constant
Bit rate : 192 Kbps
Channel count : 2 channels
Channel positions : Front: L R
Sampling rate : 48.0 KHz
Bit depth : 16 bits
Compression mode : Lossy
Stream size : 148 MiB (3%)
Title : Ukr_line
Language : Ukrainian
Default : Yes
Forced : No

Audio #2
ID : 3
Format : AC-3
Format/Info : Audio Coding 3
Mode extension : CM (complete main)
Format settings, Endianness : Big
Codec ID : A_AC3
Duration : 1h 47mn
Bit rate mode : Constant
Bit rate : 640 Kbps
Channel count : 6 channels
Channel positions : Front: L C R, Side: L R, LFE
Sampling rate : 48.0 KHz
Bit depth : 16 bits
Compression mode : Lossy
Stream size : 492 MiB (10%)
Language : English
Default : No
Forced : No
Скріншоти


Джерело:


 Трекер:    Зареєстрований   

Завантажити / скачати фільм українською



відео для новачків



 Зареєстрований:   2014-01-07 22:48
 Розмір:   5 GB 
 Оцінка фільму:   9.3/10 (Голосів: 20)
   
Інші релізи
   Мачете вбиває / Machete Kills (2013) 2xUkr patriot2305  1 / 0   1.46 GB   2015-08-02 15:01 
Tryastsya 
Відео Гуртом - підтримка та поширення
Відео Гуртом - підтримка та поширення


З нами з: 01.08.08
Востаннє: 02.12.16
Повідомлень: 138

2014-01-11 21:36  
Machete happens! Родріґез рулить! Wide grin
-VJ- 
VIP


З нами з: 01.11.09
Востаннє: 30.11.16
Повідомлень: 575

2014-02-11 13:56  
Доріжку киньте в розділ доріжок, будь ласка - я збираю в 1080р, тому буду клеїти під себе Happy
Ваш часовий пояс: GMT + 2 Години

Нова тема   Відповісти