Завантажити та скачати торренти українською


Будинок з приколами / The Haunted Mansion (2003) 720р Ukr/Eng

Нові коментарі

Нова тема   Відповісти
Останній раз роздавалося bodiakrt (2016-12-01)
Автор Повідомлення
ТОЛЯН 
Поважний учасник


З нами з: 01.07.11
Востаннє: 27.11.16
Повідомлень: 246

2014-01-07 18:49  
Будинок з приколами / The Haunted Mansion (2003) 720р Ukr/Eng

Будинок з приколами / The Haunted Mansion (2003) 720р Ukr/Eng


Жанр: Комедія
Країна: США



Кінокомпанія: Walt Disney Pictures
Режисер: Роб Мінкофф/Rob Minkoff
Актори: Едді Мерфі /Eddie Murphy/, Теренс Стемп /Terence Stamp/, Натаніель Паркер /Nathaniel Parker/, Марша Томасон /Marsha Thomason/, Дженніфер Тіллі /Jennifer Tilly/, Уоллес Шоун /Wallace Shawn/, Діна Уотерс /Dina Waters/, Марк Джон Джеффріс /Marc John Jefferies/, Ери Девіс /Aree Davis/, Джим Дуган /Jim Doughan/, Рейчел Харріс /Rachael Harris/

Сюжет:
Працьовитий агент із нерухомості Джим Іверс волею випадку роздобувши в управління великий похмурий особняк, перевозить туди всю свою родину - у його планах перетворити будинок у сучасне розкішне житло і вигідно продати. Однак, залишившись у будинку, родина Джима розуміє, що вони там не одні - компанію їм становлять 999 досить різноманітних примар, кожна з яких бажає познайомитися з ними ближче. Примари ніяк не хочуть залишати вподобаний ними будинок, а Джим дуже хоче зняти прокляття з будинку, щоб звільнити його від примар...


Тривалість: 01:27:56
Якість:
Відео:
кодек:
розмір кадру: 1280 х 546
бітрейт: 4537 кб/с

Аудіо # 1 :
мова: українська
переклад: двоголосий закадровий
кодек: 5.1
бітрейт: 384 кб/с

Аудіо # 2:
мова: англійська
переклад: оригінал
кодек: 5.1
бітрейт: 1536 кб/с

Джерело озвучення:
MediaInfo
D:\The Haunted Mansion (2003) 720p [ukr, eng].mkv
General
Unique ID : 231966095335528859121254942728676474338 (0xAE830B7F26C8C702A31701D525F87DE2)
Complete name : D:\The Haunted Mansion (2003) 720p [ukr, eng].mkv
Format : Matroska
Format version : Version 2
File size : 4.04 GiB
Duration : 1h 27mn
Overall bit rate : 6 573 Kbps
Movie name : The Haunted Mansion (2003) - Release for HDCLUB
Encoded date : UTC 2014-01-07 16:17:11

Video #1
ID : 1
Format : AVC
Format/Info : Advanced Video Codec
Format profile : [email protected]
Format settings, CABAC : Yes
Format settings, ReFrames : 6 frames
Codec ID : V_MPEG4/ISO/AVC
Duration : 1h 27mn
Bit rate : 4 548 Kbps
Width : 1 280 pixels
Height : 546 pixels
Display aspect ratio : 2.35:1
Frame rate : 23.976 fps
Color space : YUV
Chroma subsampling : 4:2:0
Bit depth : 8 bits
Scan type : Progressive
Bits/(Pixel*Frame) : 0.271
Stream size : 2.79 GiB (69%)
Title : The Haunted Mansion (2003) - Release for HDCLUB
Writing library : core 104 r1703 cd21d05
Encoding settings : cabac=1 / ref=6 / deblock=1:-1:-1 / analyse=0x3:0x113 / me=umh / subme=10 / psy=1 / psy_rd=1.10:0.05 / mixed_ref=1 / me_range=32 / chroma_me=1 / trellis=2 / 8x8dct=1 / cqm=0 / deadzone=21,11 / fast_pskip=0 / chroma_qp_offset=-3 / threads=6 / sliced_threads=0 / nr=0 / decimate=1 / interlaced=0 / constrained_intra=0 / bframes=7 / b_pyramid=2 / b_adapt=2 / b_bias=0 / direct=3 / weightb=1 / open_gop=0 / weightp=2 / keyint=250 / keyint_min=23 / scenecut=40 / intra_refresh=0 / rc=crf / mbtree=0 / crf=16.5 / qcomp=0.60 / qpmin=10 / qpmax=51 / qpstep=4 / ip_ratio=1.40 / pb_ratio=1.30 / aq=1:0.80
Language : English
Default : Yes
Forced : No
Audio #2
ID : 2
Format : AC-3
Format/Info : Audio Coding 3
Mode extension : CM (complete main)
Format settings, Endianness : Big
Codec ID : A_AC3
Duration : 1h 27mn
Bit rate mode : Constant
Bit rate : 384 Kbps
Channel(s) : 6 channels
Channel positions : Front: L C R, Side: L R, LFE
Sampling rate : 48.0 KHz
Bit depth : 16 bits
Compression mode : Lossy
Stream size : 242 MiB (6%)
Title : 5.1 384 кб/с | двоголосий закадровий | Новий канал
Language : Ukrainian
Default : Yes
Forced : No
Audio #3
ID : 3
Format :
Format/Info : Digital Theater Systems
Codec ID : A_DTS
Duration : 1h 27mn
Bit rate mode : Constant
Bit rate : 1 510 Kbps
Channel(s) : 6 channels
Channel positions : Front: L C R, Side: L R, LFE
Sampling rate : 48.0 KHz
Bit depth : 16 bits
Compression mode : Lossy
Stream size : 950 MiB (23%)
Title : original [ 6ch 1509 kbps]
Language : English
Default : No
Forced : No
Скріншоти






Джерело: &

Подяка за доріжку _Slavik_


Срібний реліз (на рейтинг впливає 50% завантаженого)
 Трекер:    Зареєстрований   

Завантажити / скачати фільм українською



відео для новачків



 Зареєстрований:   2014-01-07 18:49
 Розмір:   4.04 GB 
 Оцінка фільму:   4.9/10 (Голосів: 18)
   
Інші релізи
Ваш часовий пояс: GMT + 2 Години

Нова тема   Відповісти