Завантажити та скачати торренти українською


Ансамбль "Черемшина" - Свято Різдва. Щедрівки і Колядки (1981) (FLAC) | Folk

Нові коментарі

Нова тема   Відповісти
Автор Повідомлення
Gienek_Lwow 
VIP


З нами з: 28.09.10
Востаннє: 09.12.16
Повідомлень: 541

2014-01-06 19:45  
Ансамбль "Черемшина" - Свято Різдва. Щедрівки і Колядки (1981) (FLAC) | Folk

Ансамбль "Черемшина" - Свято Різдва. Щедрівки і Колядки (1981) (FLAC) | Folk


Стиль: Folk, Vocal
Країна, місто: Канада, Монреаль
Видавець: Yevshan # CDYFP 1016
Виконавці:
Співають:
Ансамбль "Черемшина" - Надія Цвітков (сопран), Клавдія Мельник (перший альт),
Ліда Рудич (другий альт), Маруся Крищук (сопран), Роман Костик (тенор)
Інструменталісти:
Юрій Кулицький (ф-но, флейта), Марко Беднарчик і Роберт Макіон (гітари і вокал),
Василь Волощук і Роман Боцюрків (бандури), Роксоляна Савка (скрипка),
Джеймс Сломинський (бас), Поль Фортен (ударні)
Пісні:
    [03:36] 01. Щедрик - Shchedryk
    [03:04] 02. В полі, полі - V Poli, Poli
    [06:05] 03. В'язанка - Medley
    [03:06] 04. На Йорданській Річці - Na Jordanskij Ritchsi
    [03:36] 05. Ой В Єрусалимі Рано Задзвонили - Oj V Jerusalymi Rano Zadzvonyly
    [02:22] 06. Христос Родився - Khrystos Rodyvsja
    [02:24] 07. Небо І Земля - Nebo I Zemlja
    [02:44] 08. Во Вифлиємі Зоря Сіяє - Vo Vyflyjemi Zoriz Sijaje
    [04:53] 09. В'язанка - Medley
    [01:59] 10. Ой Леліє, Леліє - Oj Lelije Lelije
    [03:57] 11. Спи Ісусе, Спи - Spy Isuse Spy

Тривалість: 00:37:46
Мова: українська
Аудіо-кодек: FLAC
Бітрейт: 724 кб/с
Джерело: Орігінальний диск (власний ріп)
Додаткова інформація:
log EAC

Exact Audio Copy V0.99 prebeta 5 from 4. May 2009

Звіт EAC про видобування, котре виконане 6. січня 2014, 19:10

Свято Різдва - Щедрівки і Колядки / Ансамбль "Черемшина"

Дисковод: TSSTcorpDVD-ROM SH-D162D Adapter: 0 ID: 0

Режим читання : Точний
Використати точний потік : Так
Вимкнути аудіо кеш : Так
Застосувати мітки C2 : Ні

Корекція зміщення при читанні : 6
Екстрачитання областей Lead-in і Lead-out : Ні
Заповнення пропущених семплів тишею : Так
Видалення блоків з тишею на початку і кінці : Ні
При вирахуванні CRC використовувались нульові семпли : Так
Використаний інтерфейс : Встановлений зовнішній ASPI-інтерфейс

Застосований вихідний формат : Кодер Користувача
Обраний бітрейт : 128 kBit/s
Якість : Високий
Додати тег ID3 : Ні
Компресор командного рядка : C:\Program Files\Exact Audio Copy\Flac\flac.exe
Додаткові параметри командного рядка : -8 -V %s

TOC видобутого CD

Трек | Старт | Довжина | Початковий сектор | Кінцевий сектор
------------------------------------------------------------------
1 | 0:00.32 | 3:40.45 | 32 | 16576
2 | 3:41.02 | 3:02.28 | 16577 | 30254
3 | 6:43.30 | 6:05.65 | 30255 | 57694
4 | 12:49.20 | 3:05.45 | 57695 | 71614
5 | 15:54.65 | 3:36.27 | 71615 | 87841
6 | 19:31.17 | 2:21.05 | 87842 | 98421
7 | 21:52.22 | 2:23.63 | 98422 | 109209
8 | 24:16.10 | 2:44.60 | 109210 | 121569
9 | 27:00.70 | 4:53.35 | 121570 | 143579
10 | 31:54.30 | 1:58.00 | 143580 | 152429
11 | 33:52.30 | 3:53.60 | 152430 | 169964

Статус діапазону і помилки

Обраний діапазон

Ім'я файлу E:\Hurtom\Черемшина - Свято Різдва. Щедрівки і Колядки - 1981\Свято Різдва - Щедрівки і Колядки - Ансамбль Черемшина.wav

Піковий рівень 70.5 %
Якість діапазону 100.0 %
CRC копії DC28BEC0
Копіювання... OK

Помилки не траплялися

Звіт Точного Видобування

Трек 1 не присутнє в базі даних
Трек 2 не присутнє в базі даних
Трек 3 не присутнє в базі даних
Трек 4 не присутнє в базі даних
Трек 5 не присутнє в базі даних
Трек 6 не присутнє в базі даних
Трек 7 не присутнє в базі даних
Трек 8 не присутнє в базі даних
Трек 9 не присутнє в базі даних
Трек 10 не присутнє в базі даних
Трек 11 не присутнє в базі даних

Жодного трека немає в базі AccurateRip

Кінець звіту


Якщо Ви справді бажаєте підтримати українське - після прослуховування, якщо музика вам сподобалась, придбайте ліцензійний диск. Підтримаймо вітчизняних виконавців!


Срібний реліз (на рейтинг впливає 50% завантаженого)
 Трекер:    Зареєстрований   

Завантажити / скачати українську музику



відео для новачків



 Зареєстрований:   2014-01-06 19:45
 Розмір:   201 MB 
 Оцінка музики:   9.8/10 (Голосів: 17)
   
fv007 
VIP


З нами з: 01.01.10
Востаннє: 09.12.16
Повідомлень: 449

2014-01-06 20:11  
Gienek_Lwow, дякую, приємний подрунок до свят!
Один з моїх (і мабуть, не тільки моїх) найулюбленіших альбомів різдвяних пісень, надзвичайно гарне та мелодійне поєднання голосів, виконання на висоті.
Усім рекомендую.

Веселих Різдвяних свят!!!

Ваш часовий пояс: GMT + 2 Години

Нова тема   Відповісти