Завантажити та скачати торренти українською


Пенелопа / Penelope (2006) Ukr/Eng | Sub Eng

Нові коментарі

Нова тема   Відповісти
Автор Повідомлення
BOOGud 
VIP


З нами з: 06.03.12
Востаннє: 11.11.16
Повідомлень: 907

2014-01-05 20:31  
Пенелопа / Penelope (2006) Ukr/Eng | Sub Eng

Пенелопа / Penelope (2006) Ukr/Eng | Sub Eng


Жанр: сімейний, комедія, романтичний, мелодрама, фентезі
Країна: США



Кінокомпанія: Stone Village Pictures
Режисер: Марк Паланскі
Актори: Крістіна Річчі, Різ Уїзерспун, Джеймс МакЕвой, Річард Е. Грант, Кетрін О'Хара, Нік Прідо, Майкл Фіст, Ронні Анкона, Саймон Вудс, Пол Герберт та інші

Сюжет:
Вісімнадцятирічна Пенелопа Уілгерн - представниця стародавнього аристократичного роду . Багато років бідолаха змушена жити з батьками у величезному особняку й ховати обличчя від оточуючих: над нею тяжіє сімейне прокляття . Замість носа у дівчини - свинячий п'ятачок , який пропаде тільки тоді , коли юнак благородних кровей по- справжньому полюбить Пенелопу і одружується з нею .
Мати Пенелопи , сподіваючись розбити прокляття , починає запрошувати в будинок наречених. Але багаті юнаки в жаху розбігаються , побачивши обличчя нареченої. Так відбувається до тих пір , поки Пенелопа не знайомиться з Максом ...


Тривалість: 01:43:49
Якість:
Відео:
кодек:
розмір кадру: 720x304
бітрейт: 2 096 кб/с

Аудіо # 1:
мова: українська
переклад: багатоголосий закадровий | Так треба продакшн
кодек: 2.0
бітрейт: 192 кб/с

Аудіо # 2:
мова: англійська
переклад: оригінал
кодек: AC-3 5.1
бітрейт:448 кб/с

Джерело озвучення:
| Так треба продакшн

Субтитри:
мова: англійська
тип: програмні (м'які)
формат: *.srt
MediaInfo
General
Complete name : H:\!!!720\!!!1080p\Penelope.2006..UKR.ENG\Penelope.2006..UKR.ENG.avi
Format : AVI
Format/Info : Audio Video Interleave
Format profile : OpenDML
File size : 2.00 GiB
Duration : 1h 43mn
Overall bit rate : 2 755 Kbps
Movie name : Penelopa.2006.DUAL....-HQCLUB
Director : Joker
Writing application : VirtualDubMod 1.5.10.2 (build 2540/release)
Writing library : VirtualDubMod build 2540/release
Original source form/Name : фэнтези, мелодрама, комедия
Copyright : http://forum.hqclub.net
Comment : 1.07.12

Video
ID : 0
Format : MPEG-4 Visual
Format profile : Advanced [email protected]
Format settings, BVOP : 1
Format settings, QPel : No
Format settings, GMC : No warppoints
Format settings, Matrix : Custom
Muxing mode : Packed bitstream
Codec ID :
Codec ID/Hint :
Duration : 1h 43mn
Bit rate : 2 096 Kbps
Width : 720 pixels
Height : 304 pixels
Display aspect ratio : 2.35:1
Frame rate : 23.976 fps
Color space : YUV
Chroma subsampling : 4:2:0
Bit depth : 8 bits
Scan type : Progressive
Compression mode : Lossy
Bits/(Pixel*Frame) : 0.399
Stream size : 1.52 GiB (76%)
Writing library : 72

Audio #1
ID : 1
Format : AC-3
Format/Info : Audio Coding 3
Mode extension : CM (complete main)
Format settings, Endianness : Big
Codec ID : 2000
Duration : 1h 43mn
Bit rate mode : Constant
Bit rate : 192 Kbps
Channel count : 2 channels
Channel positions : Front: L R
Sampling rate : 48.0 KHz
Bit depth : 16 bits
Compression mode : Lossy
Stream size : 143 MiB (7%)
Alignment : Split accross interleaves
Interleave, duration : 42 ms (1.00 video frame)
Interleave, preload duration : 500 ms

Audio #2
ID : 2
Format : AC-3
Format/Info : Audio Coding 3
Mode extension : CM (complete main)
Format settings, Endianness : Big
Codec ID : 2000
Duration : 1h 43mn
Bit rate mode : Constant
Bit rate : 448 Kbps
Channel count : 6 channels
Channel positions : Front: L C R, Side: L R, LFE
Sampling rate : 48.0 KHz
Bit depth : 16 bits
Compression mode : Lossy
Stream size : 333 MiB (16%)
Alignment : Split accross interleaves
Interleave, duration : 42 ms (1.00 video frame)
Interleave, preload duration : 500 ms
Скріншоти























































укр доріжка взята із релізу пана - dbdeveloper

підігнав доріжку під БД - BOOGud

Джерело: NNM-Club &
Особиста оцінка: 9 - давно не бачив настільки якісне кіно


 Трекер:    Зареєстрований   

Завантажити / скачати фільм українською



відео для новачків



 Зареєстрований:   2014-01-05 20:31
 Розмір:   2 GB 
 Оцінка фільму:   9.4/10 (Голосів: 19)
   
Інші релізи
   Пенелопа / Penelope (2006) 720p Ukr/Eng | Sub Eng BOOGud  1 / 0   4.51 GB   2014-01-05 20:16 
10alexs 
VIP


З нами з: 26.02.09
Востаннє: 04.12.16
Повідомлень: 296

2014-01-05 22:54  
хаха, ржака 
bodia87 
Відео Гуртом - фільмокрай
Відео Гуртом - фільмокрай


З нами з: 24.01.09
Востаннє: 04.12.16
Повідомлень: 468

2014-02-15 00:27  
BOOGud написано:
переклад: багатоголосий закадровий | Так треба продакшн


Хто в курсі з якого каналу запис ? Бо в мене є ще запис з "НовогоКаналу" !

BOOGud 
VIP


З нами з: 06.03.12
Востаннє: 11.11.16
Повідомлень: 907

2014-02-15 02:44  
bodia87 написано:
Хто в курсі з якого каналу запис ? Бо в мене є ще запис з "НовогоКаналу" !

йой, чудова новина! ібо у цьому звуці постійний шум який неможливо почистити, погано записаний був, сподіваюсь у вас інший

imonko 
Відео Гуртом - фільмокрай
Відео Гуртом - фільмокрай


З нами з: 20.07.08
Востаннє: 31.10.16
Повідомлень: 7309

2014-02-15 10:39  
bodia87 написано:
Хто в курсі з якого каналу запис ?

скоріш за все інший, по новому не показують ТТП, ну хіба в незнайомих мені випадках.

Arsenfpu 
Відео Гуртом - фільмокрай
Відео Гуртом - фільмокрай


З нами з: 30.04.09
Востаннє: 03.12.16
Повідомлень: 1582

2016-11-19 10:01  
К1 показував цю саме озвучку.
Ваш часовий пояс: GMT + 2 Години

Нова тема   Відповісти