Завантажити та скачати торренти українською


Пенелопа / Penelope (2006) 720p Ukr/Eng | Sub Eng

Нові коментарі

Нова тема   Відповісти
Автор Повідомлення
BOOGud 
VIP


З нами з: 06.03.12
Востаннє: 11.11.16
Повідомлень: 907

2014-01-05 20:16  
Пенелопа / Penelope (2006) 720p Ukr/Eng | Sub Eng

Пенелопа / Penelope (2006) 720p Ukr/Eng | Sub Eng


Жанр: сімейний, комедія, романтичний, мелодрама, фентезі
Країна: США



Кінокомпанія: Stone Village Pictures
Режисер: Марк Паланскі
Актори: Крістіна Річчі, Різ Уїзерспун, Джеймс МакЕвой, Річард Е. Грант, Кетрін О'Хара, Нік Прідо, Майкл Фіст, Ронні Анкона, Саймон Вудс, Пол Герберт та інші

Сюжет:
Вісімнадцятирічна Пенелопа Уілгерн - представниця стародавнього аристократичного роду . Багато років бідолаха змушена жити з батьками у величезному особняку й ховати обличчя від оточуючих: над нею тяжіє сімейне прокляття . Замість носа у дівчини - свинячий п'ятачок , який пропаде тільки тоді , коли юнак благородних кровей по- справжньому полюбить Пенелопу і одружується з нею .
Мати Пенелопи , сподіваючись розбити прокляття , починає запрошувати в будинок наречених. Але багаті юнаки в жаху розбігаються , побачивши обличчя нареченої. Так відбувається до тих пір , поки Пенелопа не знайомиться з Максом ...


Тривалість: 01:43:49
Якість:
Відео:
кодек:
розмір кадру: 1 280 х 528
бітрейт: 4 518 кб/с

Аудіо # 1:
мова: українська
переклад: багатоголосий закадровий | Так треба продакшн
кодек: 2.0
бітрейт: 192 кб/с

Аудіо # 2:
мова: англійська
переклад: оригінал
кодек: -HD 5.1
бітрейт: 1 509 кб/с

Джерело озвучення:
| Так треба продакшн

Субтитри:
мова: англійська
тип: програмні (м'які)
формат: *.srt
MediaInfo
General
Unique ID : 235216133964024799909934099600828137536 (0xB0F4FAC5C87D0D37B12A399277A60040)
Complete name : K:\!720\1080\Penelope.2006.BluRay.720p.UKR.ENG.mkv
Format : Matroska
Format version : Version 4 / Version 2
File size : 4.51 GiB
Duration : 1h 43mn
Overall bit rate : 6 222 Kbps
Encoded date : UTC 2014-01-05 15:35:37
Writing application : mkvmerge v6.6.0 ('The Edge Of The In Between') built on Dec 1 2013 17:55:00
Writing library : libebml v1.3.0 + libmatroska v1.4.1

Video
ID : 1
Format : AVC
Format/Info : Advanced Video Codec
Format profile : [email protected]
Format settings, CABAC : Yes
Format settings, ReFrames : 8 frames
Codec ID : V_MPEG4/ISO/AVC
Duration : 1h 43mn
Bit rate : 4 518 Kbps
Width : 1 280 pixels
Height : 528 pixels
Display aspect ratio : 2.40:1
Frame rate mode : Constant
Frame rate : 23.976 fps
Color space : YUV
Chroma subsampling : 4:2:0
Bit depth : 8 bits
Scan type : Progressive
Bits/(Pixel*Frame) : 0.279
Stream size : 3.19 GiB (71%)
Writing library : core 65 r1028M 83baa7f
Encoding settings : cabac=1 / ref=8 / deblock=1:-2:-1 / analyse=0x3:0x113 / me=umh / subme=6 / psy_rd=1.0:0.0 / mixed_ref=1 / me_range=16 / chroma_me=1 / trellis=1 / 8x8dct=1 / cqm=0 / deadzone=21,11 / chroma_qp_offset=-2 / threads=6 / nr=0 / decimate=1 / mbaff=0 / bframes=16 / b_pyramid=1 / b_adapt=1 / b_bias=0 / direct=3 / wpredb=1 / keyint=250 / keyint_min=25 / scenecut=40(pre) / rc=2pass / bitrate=4518 / ratetol=1.0 / qcomp=0.60 / qpmin=10 / qpmax=51 / qpstep=4 / cplxblur=20.0 / qblur=0.5 / ip_ratio=1.40 / pb_ratio=1.30 / aq=1:1.00
Language : English
Default : Yes
Forced : No

Audio #1
ID : 2
Format : AC-3
Format/Info : Audio Coding 3
Mode extension : CM (complete main)
Format settings, Endianness : Big
Codec ID : A_AC3
Duration : 1h 43mn
Bit rate mode : Constant
Bit rate : 192 Kbps
Channel count : 2 channels
Channel positions : Front: L R
Sampling rate : 48.0 KHz
Bit depth : 16 bits
Compression mode : Lossy
Stream size : 143 MiB (3%)
Title : UKR(TTP)
Language : Ukrainian
Default : No
Forced : No

Audio #2
ID : 3
Format :
Format/Info : Digital Theater Systems
Mode : 16
Format settings, Endianness : Big
Codec ID : A_DTS
Duration : 1h 43mn
Bit rate mode : Constant
Bit rate : 1 509 Kbps
Channel count : 6 channels
Channel positions : Front: L C R, Side: L R, LFE
Sampling rate : 48.0 KHz
Bit depth : 16 bits
Compression mode : Lossy
Stream size : 1.09 GiB (24%)
Title : ENG
Language : English
Default : No
Forced : No

Text
ID : 4
Format : UTF-8
Codec ID : S_TEXT/UTF8
Codec ID/Info : UTF-8 Plain Text
Title : ENGsub
Language : English
Default : No
Forced : No
Скріншоти














































































укр доріжка взята із релізу пана - dbdeveloper

підігнав доріжку під БД - BOOGud

Джерело: PublicHD &
Особиста оцінка: 9 - давно не бачив настільки якісне кіно


 Трекер:    Зареєстрований   

Завантажити / скачати фільм українською



відео для новачків



 Зареєстрований:   2014-01-05 20:16
 Розмір:   4.51 GB 
 Оцінка фільму:   9.7/10 (Голосів: 6)
   
Інші релізи
   Пенелопа / Penelope (2006) Ukr/Eng | Sub Eng BOOGud  4 / 0   2 GB   2014-01-05 20:31 
patriot2305 
Почесний гуртомівець


З нами з: 23.04.11
Востаннє: 07.12.16
Повідомлень: 4145

2014-01-05 20:34  
Хтось має запис SAT цього фільму?
BOOGud 
VIP


З нами з: 06.03.12
Востаннє: 11.11.16
Повідомлень: 907

2014-01-05 20:51  
patriot2305 написано:
Хтось має запис SAT цього фільму?

було б добре якби в когось знайшовся інший запис, цей звук був записаний не дуже добре, присутній шум, до нього звикаєш але все ж

SergoMozaic 
VIP


З нами з: 04.10.09
Востаннє: 04.12.16
Повідомлень: 509

2014-01-05 21:15  
Дякую за реліз.
Фільм класний, дивився з дитиною декілька разів.
В описі помилка - знайомиться з Максом.

BOOGud 
VIP


З нами з: 06.03.12
Востаннє: 11.11.16
Повідомлень: 907

2014-01-05 21:27  
SergoMozaic написано:
В описі помилка - знайомиться з Максом.

дякую, виправив

Х-Хед 
VIP


З нами з: 06.05.12
Востаннє: 12.11.16
Повідомлень: 297

2014-01-07 14:07  
Твереза оцінка 9. Чому не 10? Тому що багато мікроповторів сюжету. Таке враження ніби ті хвилини фільму натягують. Але все ніби гармонічно зкомпановано. Залишаюсь на роздачі.
Ваш часовий пояс: GMT + 2 Години

Нова тема   Відповісти