Завантажити та скачати торренти українською


Гаррі Поттер і таємна кімната / Harry Potter and the Chamber of Secrets (2002) 1080p 2xUkr/Eng | Sub Ukr/Eng

Нові коментарі

Нова тема   Відповісти
Автор Повідомлення
leroykendall 
Модератор HD


З нами з: 03.01.11
Востаннє: 20.11.16
Повідомлень: 749

2014-01-03 00:25  
Гаррі Поттер і таємна кімната / Harry Potter and the Chamber of Secrets (2002) 1080p 2xUkr/Eng | Sub Ukr/Eng

Гаррі Поттер і таємна кімната / Harry Potter and the Chamber of Secrets (2002) 1080p 2xUkr/Eng | Sub Ukr/Eng

«Something evil has returned to Hogwarts!»
Альтернативний постер # 1
Гаррі Поттер і таємна кімната / Harry Potter and the Chamber of Secrets (2002) 1080p 2xUkr/Eng | Sub Ukr/Eng
Альтернативний постер # 2
Гаррі Поттер і таємна кімната / Harry Potter and the Chamber of Secrets (2002) 1080p 2xUkr/Eng | Sub Ukr/Eng

Жанр: фентезі, пригодницький, сімейний
Країна: США, Великобританія, Німеччина





Кінокомпанія: 1492 Pictures, Heyday Films, MIRACLE Productions GmbH & Co. KG, Warner Bros. Pictures
Режисер: Кріс Коламбус (Chris Columbus)
Актори: Деніел Редкліфф, Руперт Ґрінт, Емма Вотсон, Річард Ґріффітс, Фіона Шоу, Том Фелтон, Річард Гарріс, Роббі Колтрейн, Алан Рікмен, Меґґі Сміт, Бонні Райт, Джеймс Фелпс, Олівер Фелпс

Сюжет:
Гаррі Поттер переходить на другий курс Школи Магії і Чарів Гоґвортс. Ельф Доббі попереджає Гаррі про небезпеку, яка чекає його там, і просить більше не повертатися в Гоґвортс. Гаррі не слідує пораді ельфа і стає свідком страшних подій, що розгортаються в школі. Один за іншим, мешканці школи виявляються під впливом злих чарів, що перетворюють їх у закляклі статуї. А Гаррі весь цей час чує зловісний голос, який, здавалося б, йде з нізвідки. Незабаром учні довідаються про існування страшної Таємної кімнати, відкрити яку в змозі тільки єдиний спадкоємець Салазара Слизерина. Усі думають, що Таємну кімнату відкрив саме Гаррі і звільнив ув’язнений у ній Жах, адже справа в тому, що Поттер розуміє змій і вміє говорити на їхній мові. Гаррі Поттер – перселмовець! А саме таким і був знаменитий Слизерин.


Тривалість: 02:40:56
Якість: 1080p
Відео:
кодек:
розмір кадру: 1920 x 800
бітрейт: 9410 кб/с

Аудіо # 1:
мова: українська
переклад: багатоголосий закадровий Новий канал
кодек: 5.1
бітрейт: 640 кб/с Аудіо # 2:
мова: українська
переклад: багатоголосий закадровий
кодек: 2.0
бітрейт: 192 кб/с
Інформація про озвучення
Аудіо # 3:
мова: українська
переклад: багатоголосий закадровий
кодек: 2.0
бітрейт: 192 кб/с
Інформація про озвучення
двоканальний варіант першої доріжки
Аудіо # 4:
мова: англійська
переклад: оригінал
кодек: 5.1
бітрейт: 1536 кб/с

Субтитри:
мова: українська
тип: програмні (м'які)
формат: *.srt

Субтитри:
мова: англійська
тип: програмні (м'які)
формат: *.srt

Збережені оригінальні чаптери як на Blu-ray.
MediaInfo
Код:
General
Unique ID                                : 234537994772885301510718582184639869418 (0xB0725FEDD81A110E832E838E81BA31EA)
Complete name                            : V:\Harry Potter and the Chamber of Secrets (2002) [2xUkr, Eng] 1080p [Hurtom, HDClub] by leroykendall.mkv
Format                                   : Matroska
Format version                           : Version 4 / Version 2
File size                                : 13.4 GiB
Duration                                 : 2h 40mn
Overall bit rate                         : 11.9 Mbps
Movie name                               : Harry Potter and the Chamber of Secrets (2002) [2xUkr, Eng] 1080p [Hurtom, HDClub] by leroykendall
Encoded date                             : UTC 2014-01-01 20:28:15
Writing application                      : mkvmerge v6.2.0 ('Promised Land') built on Apr 28 2013 12:22:01
Writing library                          : libebml v1.3.0 + libmatroska v1.4.0

Video
ID                                       : 1
Format                                   : AVC
Format/Info                              : Advanced Video Codec
Format profile                           : [email protected]
Format settings, CABAC                   : Yes
Format settings, ReFrames                : 5 frames
Codec ID                                 : V_MPEG4/ISO/AVC
Duration                                 : 2h 40mn
Bit rate                                 : 9 410 Kbps
Width                                    : 1 920 pixels
Height                                   : 800 pixels
Display aspect ratio                     : 2.40:1
Frame rate mode                          : Constant
Frame rate                               : 23.976 fps
Color space                              : YUV
Chroma subsampling                       : 4:2:0
Bit depth                                : 8 bits
Scan type                                : Progressive
Bits/(Pixel*Frame)                       : 0.256
Stream size                              : 10.3 GiB (77%)
Title                                    : Harry Potter and the Chamber of Secrets (2002) 1080p
Writing library                          : core 64 r985 e256ea1
Encoding settings                        : cabac=1 / ref=5 / deblock=1:-3:-3 / analyse=0x3:0x113 / me=umh / subme=6 / psy_rd=1.0:0.0 / brdo=1 / mixed_ref=1 / me_range=16 / chroma_me=1 / trellis=0 / 8x8dct=1 / cqm=2 / deadzone=6,4 / chroma_qp_offset=-2 / threads=6 / nr=0 / decimate=0 / mbaff=0 / bframes=16 / b_pyramid=1 / b_adapt=1 / b_bias=0 / direct=1 / wpredb=1 / bime=1 / keyint=250 / keyint_min=25 / scenecut=40(pre) / rc=2pass / bitrate=9410 / ratetol=1.0 / qcomp=0.60 / qpmin=10 / qpmax=51 / qpstep=4 / cplxblur=20.0 / qblur=0.5 / ip_ratio=1.40 / pb_ratio=1.30 / aq=1:1.00
Language                                 : English
Default                                  : Yes
Forced                                   : No

Audio #1
ID                                       : 2
Format                                   : AC-3
Format/Info                              : Audio Coding 3
Mode extension                           : CM (complete main)
Format settings, Endianness              : Big
Codec ID                                 : A_AC3
Duration                                 : 2h 40mn
Bit rate mode                            : Constant
Bit rate                                 : 640 Kbps
Channel count                            : 6 channels
Channel positions                        : Front: L C R, Side: L R, LFE
Sampling rate                            : 48.0 KHz
Bit depth                                : 16 bits
Compression mode                         : Lossy
Stream size                              : 737 MiB (5%)
Title                                    : 5.1 @ 640 kbps - багатоголосий закадровий Новий канал
Language                                 : Ukrainian
Default                                  : Yes
Forced                                   : No

Audio #2
ID                                       : 3
Format                                   : AC-3
Format/Info                              : Audio Coding 3
Mode extension                           : CM (complete main)
Format settings, Endianness              : Big
Codec ID                                 : A_AC3
Duration                                 : 2h 40mn
Bit rate mode                            : Constant
Bit rate                                 : 192 Kbps
Channel count                            : 2 channels
Channel positions                        : Front: L R
Sampling rate                            : 48.0 KHz
Bit depth                                : 16 bits
Compression mode                         : Lossy
Stream size                              : 221 MiB (2%)
Title                                    : 2.0 @ 192 kbps - багатоголосий закадровий 1+1
Language                                 : Ukrainian
Default                                  : No
Forced                                   : No

Audio #3
ID                                       : 4
Format                                   : AC-3
Format/Info                              : Audio Coding 3
Mode extension                           : CM (complete main)
Format settings, Endianness              : Big
Codec ID                                 : A_AC3
Duration                                 : 2h 40mn
Bit rate mode                            : Constant
Bit rate                                 : 192 Kbps
Channel count                            : 2 channels
Channel positions                        : Front: L R
Sampling rate                            : 48.0 KHz
Bit depth                                : 16 bits
Compression mode                         : Lossy
Stream size                              : 221 MiB (2%)
Title                                    : 2.0 @ 192 kbps - багатоголосий закадровий Новий канал
Language                                 : Ukrainian
Default                                  : No
Forced                                   : No

Audio #4
ID                                       : 5
Format                                   :
Format/Info                              : Digital Theater Systems
Mode                                     : 16
Format settings, Endianness              : Big
Codec ID                                 : A_DTS
Duration                                 : 2h 40mn
Bit rate mode                            : Constant
Bit rate                                 : 1 510 Kbps
Channel count                            : 6 channels
Channel positions                        : Front: L C R, Side: L R, LFE
Sampling rate                            : 48.0 KHz
Bit depth                                : 24 bits
Compression mode                         : Lossy
Stream size                              : 1.70 GiB (13%)
Title                                    : 5.1 @ 1536 kbps
Language                                 : English
Default                                  : No
Forced                                   : No

Text #1
ID                                       : 6
Format                                   : UTF-8
Codec ID                                 : S_TEXT/UTF8
Codec ID/Info                            : UTF-8 Plain Text
Language                                 : Ukrainian
Default                                  : No
Forced                                   : No

Text #2
ID                                       : 7
Format                                   : UTF-8
Codec ID                                 : S_TEXT/UTF8
Codec ID/Info                            : UTF-8 Plain Text
Language                                 : English
Default                                  : No
Forced                                   : No

Menu
00:00:00.000                             : en:In a Cage
00:03:01.014                             : en:Dobby's Warning
00:07:55.558                             : en:Car Rescue
00:10:40.640                             : en:The Burrow
00:14:07.096                             : en:To Diagon Aley
00:17:57.743                             : en:Flourish and Blotts
00:22:16.126                             : en:Flying to Hogwarts
00:25:49.631                             : en:Whomping Willow
00:28:50.353                             : en:Not Expelled...Today
00:31:07.991                             : en:Mandrakes; Ron's Howler
00:35:14.195                             : en:Gilderoy Lockhart
00:38:00.403                             : en:Mudbloods and Murmurs
00:42:47.982                             : en:Writing on the Wall
00:48:16.143                             : en:About the Chamber
00:52:16.133                             : en:Rogue Bludger
00:57:56.973                             : en:No Longer Safe
01:03:13.873                             : en:Dueling Club
01:07:50.524                             : en:A Parselmouth
01:11:56.145                             : en:Nothing to Tell
01:17:22.387                             : en:Polyjuice Potion
01:21:33.847                             : en:Harry and Ron Transformed
01:25:39.926                             : en:The Diary
01:29:42.251                             : en:Tom Riddle
01:33:30.354                             : en:Petrified
01:37:42.898                             : en:Cornelius Fudge
01:42:49.079                             : en:Aragog
01:47:01.623                             : en:Spider Attack
01:51:07.994                             : en:Missing
01:55:26.210                             : en:Chamber of Secrets
02:00:53.287                             : en:Backfire
02:04:09.775                             : en:Heir of Slytherin
02:09:32.306                             : en:The Basilisk
02:14:32.439                             : en:Healing Powers
02:18:05.944                             : en:Out of the Hat
02:21:20.221                             : en:Dobby's Reward
02:26:35.453                             : en:Welcome Back
02:31:43.094                             : en:End Credits
Скріншоти:




Джерело: &



Інші частини Гаррі Поттера 1080p:
Гаррі Поттер і філософський камінь / Harry Potter and the Sorcerer's Stone (2001) 1080p 2xUkr/Eng | Sub Ukr/Eng
Гаррі Поттер і філософський камінь (розширена версія) / Harry Potter (extended version) / (2001) 1080p Ukr/Eng | Sub Ukr
Гаррі Поттер і таємна кімната / Harry Potter and the Chamber of Secrets (2002) 1080p 2xUkr/Eng | Sub Ukr/Eng
Гаррі Поттер і в'язень Азкабану / Harry Potter and the Prisoner of Azkaban (2004) 1080p 3xUkr/Eng | Sub Ukr/Eng
Гаррі Поттер і келих вогню / Harry Potter and the Goblet of Fire (2005) 1080p 2xUkr/Eng | Sub Ukr/Eng
Гаррі Поттер та Орден Фенікса / Harry Potter and the Order of the Phoenix (2007) 1080p Ukr/Eng | Sub Ukr/Eng
Гаррі Поттер та напівкровний принц / Harry Potter and the Half-Blood Prince (2009) 1080p 2xUkr/Eng | Sub Ukr/Eng
Гаррі Поттер та Смертельні реліквії: Частина 1 / Harry Potter and the Deathly Hallows: Part 1 (2010) 1080p Ukr/Eng
Гаррі Поттер та Смертельні Реліквії. Частина друга / Harry Potter and the Deathly Hallows: Part 2 (2011) 1080p Ukr/Eng


Срібний реліз (на рейтинг впливає 50% завантаженого)
 Трекер:    Зареєстрований   

Завантажити / скачати фільм українською



відео для новачків



 Зареєстрований:   2014-01-03 00:25
 Розмір:   13.41 GB 
 Оцінка фільму:   9.7/10 (Голосів: 37)
   
Rah 
VIP


З нами з: 02.08.09
Востаннє: 30.11.16
Повідомлень: 307

2014-04-26 13:43  
може це зайвий "двоканальний варіант першої доріжки", якщо є вже 5.1, 640 кб/с.
leroykendall 
Модератор HD


З нами з: 03.01.11
Востаннє: 20.11.16
Повідомлень: 749

2014-04-26 23:04  
Rah
Якщо немає аудіо системи 5.1, то краще дивитись 2.0, а якщо є, то краще 5.1.

Іван Іван 
Новенький


З нами з: 14.12.14
Востаннє: 14.12.14
Повідомлень: 1

2014-12-14 11:50  
Дайте силку на саму програму торент щоб норм. скачати
ANYOL 
Новенький


З нами з: 28.10.15
Востаннє: 06.10.16
Повідомлень: 1

2016-01-19 10:06  
Добрі люди, станьте на роздачу, швидкість 400 кб/с Sad (1)
Double Trouble 
Свій


З нами з: 19.07.14
Востаннє: 10.12.16
Повідомлень: 90

2016-02-08 20:36  
Дякую, одна з кращих частин
Ваш часовий пояс: GMT + 2 Години

Нова тема   Відповісти