Завантажити та скачати торренти українською


Місто вічних історій (2013) 1080р

Нові коментарі

Нова тема   Відповісти
Автор Повідомлення
rumsasha 
Частий відвідувач


З нами з: 31.01.09
Востаннє: 10.12.16
Повідомлень: 32

2014-01-01 13:30  
Місто вічних історій (2013) 1080р

Місто вічних історій (2013) 1080р


Жанр: драма
Країна: Україна

Кінокомпанія: "Олексфільм"
Режисер: Олександр Румянцев
Актори: Олексій Єкименко, Віра Соколова, Олександр Румянцев, Ірина Кубрак, Євгеній Хоменко, Валерія Хоменко, Тетяна Дамаскіна, Павло Атаманюк-Кузьмінський

Сюжет:
Ранком молодого письменника Руслана пробуджує дзвінок - йому повідомляють, що зустріч з редактором переноситься на більш пізній час. Маючи дві години в запасі, юнак запрошує свого давнього друга Романа до кафе. У цей час молоде подружжя - Артем та Варвара - намагаються розібратися у своїх стосунках. Не витримавши чергової сварки, Артем йде з дому, запрошуючи до сусіднього кафе близьку собі людину.
Якби ж лише всі герої знали, як звичайний сніданок може повністю змінити їхні долі. Питання лише одне - чому за усіма ними весь час стежить чоловік в чорному капелюсі?


Тривалість: 00:57:44
Якість: 1080р
Відео:
кодек:
розмір кадру: 1920х1080
бітрейт: 11,8 Мб/с

Аудіо:
мова: українська
переклад: оригінал
кодек: 2.0
бітрейт: 192 кб/с
MediaInfo
Код:
General
Complete name : D:\Videos\MVI_1080p\Misto_vichnyh_istoriy.mp4
Format : MPEG-4
Format profile : Base Media / Version 2
Codec ID : mp42
File size : 4.83 GiB
Duration : 57mn 44s
Overall bit rate : 12.0 Mbps
Encoded date : UTC 2013-12-19 14:19:15
Tagged date : UTC 2013-12-19 14:19:15

Video
ID : 2
Format : AVC
Format/Info : Advanced Video Codec
Format profile : [email protected]
Format settings, CABAC : No
Format settings, ReFrames : 5 frames
Format settings, GOP : M=1, N=24
Codec ID : avc1
Codec ID/Info : Advanced Video Coding
Duration : 57mn 44s
Bit rate mode : Variable
Bit rate : 11.8 Mbps
Width : 1 920 pixels
Height : 1 080 pixels
Display aspect ratio : 16:9
Frame rate mode : Constant
Frame rate : 29.970 fps
Standard : NTSC
Color space : YUV
Chroma subsampling : 4:2:0
Bit depth : 8 bits
Scan type : Progressive
Bits/(Pixel*Frame) : 0.190
Stream size : 4.75 GiB (98%)
Language : English
Encoded date : UTC 2013-12-19 14:19:15
Tagged date : UTC 2013-12-19 14:19:15

Audio
ID : 1
Format :
Format/Info : Advanced Audio Codec
Format profile : LC
Codec ID : 40
Duration : 57mn 44s
Bit rate mode : Constant
Bit rate : 192 Kbps
Channel(s) : 2 channels
Channel positions : Front: L R
Sampling rate : 48.0 KHz
Compression mode : Lossy
Stream size : 79.3 MiB (2%)
Language : English
Encoded date : UTC 2013-12-19 14:19:15
Tagged date : UTC 2013-12-19 14:19:15
Скріншоти











Джерело: авторський реліз
Особиста оцінка: 10 - без зайвих вагань рекомендую всім!


Авторський реліз (завантажувати можна без реєстрації)
 Трекер:    Зареєстрований   

Завантажити / скачати український фільм



відео для новачків



 Зареєстрований:   2014-01-01 13:30
 Розмір:   4.83 GB 
 Оцінка фільму:   8.6/10 (Голосів: 24)
   
waldi-hurtom 
VIP


З нами з: 07.10.12
Востаннє: 09.12.16
Повідомлень: 613

2014-01-03 16:02  
Не зміг дивитись. Занадто аматорська робота. Як студентський театр якогось педіка. В сенсі педінституту. Звук, гра акторів - гірше за серіал. Халтура. Я не можу настільки абстрагуватись. Краще вже прочитати сценарій. Та й до сценарію великі сумніви. Перепрошую.
Х-Хед 
VIP


З нами з: 06.05.12
Востаннє: 12.11.16
Повідомлень: 297

2014-01-08 14:23  
Дурний фільм 4 бала
kolo_doviry 
Новенький


З нами з: 25.03.13
Востаннє: 07.12.14
Повідомлень: 1

2014-01-09 16:57  
Дякую за гарний фільм!
Форкуш 
VIP


З нами з: 03.02.10
Востаннє: 10.12.16
Повідомлень: 1547

2014-02-07 01:23  
Буде звичайний ріп?
rumsasha 
Частий відвідувач


З нами з: 31.01.09
Востаннє: 10.12.16
Повідомлень: 32

2014-02-09 15:43  
Якщо потрібно, можу залити. В якому форматі?
Форкуш 
VIP


З нами з: 03.02.10
Востаннє: 10.12.16
Повідомлень: 1547

2014-02-09 22:39  
зробіть звичайний бдріп в аві. дякую!
IvXyntavi4 
Свій


З нами з: 20.05.15
Востаннє: 28.05.16
Повідомлень: 82

2016-03-02 19:51  
Не розумію - чому кінокартини з такими розмірами та вагою знаходять місце в художніх фільмах? Адже подивитись їх може лише той у кого до комп'ютера примкнутий монітор телевізора.
Гадаю; фільм вагою більш 3.91 Га має знайти достойне місце в DVDі-розділі.

Ваш часовий пояс: GMT + 2 Години

Нова тема   Відповісти