Завантажити та скачати торренти українською


Диво на 34-й вулиці / Miracle on 34th Street (1947) 720p Ukr/Eng | Sub Ukr/Eng

Нові коментарі

Нова тема   Відповісти
Автор Повідомлення
BOOGud 
VIP


З нами з: 06.03.12
Востаннє: 11.11.16
Повідомлень: 907

2013-12-31 09:51  
Диво на 34-й вулиці / Miracle on 34th Street (1947) 720p Ukr/Eng | Sub Ukr/Eng

Диво на 34-й вулиці / Miracle on 34th Street (1947) 720p Ukr/Eng | Sub Ukr/Eng


Багацько інших гарнючих постерів








Жанр: комедія, драма, родинний
Країна: США



Кінокомпанія: Twentieth Century Fox Film Corporation
Режисер: Джордж Сітон (George Seaton)
Актори:Маурін О'Гара (Maureen O'Hara), Джон Пейн (John Payne), Едмунд Ґвенн (Edmund Gwenn), Джин Локгарт (Gene Lockhart), Наталі Вуд (Natalie Wood) та інші.

Сюжет:
Під час параду, влаштованого крупним магазином напередодні Різдва, актор, який був повинен грати Санта Клауса, виявився п'яний наче чіп. Режисер параду, Доріс Вокер, умовляє перехожого старого Кріса Крінґла зайняти місце Санти.


Перемоги і номінації

Оскар, 1948 рік
Переможець (3):
Найкраща чоловіча роль другого плану (Едмунд Ґвенн)
Найкращий сюжет
Найкращий адаптований сценарій


Номінації (1):
Найкращий фільм


Золотий глобус, 1948 рік
Переможець (2):
Найкраща чоловіча роль другого плану (Едмунд Ґвенн)
Найкращий сценарій


Тривалість: 01:36:24
Якість: 720p (CiNEFiLE)
Відео:
кодек:
розмір кадру: 992x720
бітрейт: 4981 кб/с

Аудіо # 1:
мова: українська
переклад: багатоголосий закадровий | UAVoice
кодек: 5.1
бітрейт: 640кб/с

Переклад : із Blu Ray
Озвучення: Людмила Швець, Сергій Аквіла, Дмитро Урсуляк
Монтаж та робота зі звуком:Дмитро Урсуляк (BOOGud)
Об'ємний звук(5.1): BOOGud
Обкладинки:

Аудіо # 2:
мова: англійська
переклад: оригінал
кодек: 5.1
бітрейт: 1536 кб/с

Субтитри:
мова: українські
тип: програмні (м'які)
формат: *.srt
джерело субтитрів: Blu Ray, обробка - w2958l

Субтитри #2:
мова: англійська
тип: програмні (м'які)
формат: *.srt
MediaInfo

General
Unique ID : 173799019644750286712481737089647740800 (0x82C0793F6A6C3B83BF9E03DAFA758780)
Complete name : K:\ozvuchka2\!doneeeee\Miracle.on.34th.Street.(1947).[Ukr.Eng]..720p.[UAVoice].mkv
Format : Matroska
Format version : Version 4 / Version 2
File size : 4.95 GiB
Duration : 1h 36mn
Overall bit rate : 7 357 Kbps
Movie name : Miracle on 34th Street (1947) [Eng, Ukr.Sub] 720p [Hurtom]
Encoded date : UTC 2014-01-09 22:38:12
Writing application : mkvmerge v6.6.0 ('The Edge Of The In Between') built on Dec 1 2013 17:55:00
Writing library : libebml v1.3.0 + libmatroska v1.4.1

Video
ID : 1
Format : AVC
Format/Info : Advanced Video Codec
Format profile : [email protected]
Format settings, CABAC : Yes
Format settings, ReFrames : 5 frames
Codec ID : V_MPEG4/ISO/AVC
Duration : 1h 36mn
Bit rate : 4 981 Kbps
Width : 992 pixels
Height : 720 pixels
Display aspect ratio : 1.378
Frame rate mode : Constant
Frame rate : 23.976 fps
Color space : YUV
Chroma subsampling : 4:2:0
Bit depth : 8 bits
Scan type : Progressive
Bits/(Pixel*Frame) : 0.291
Stream size : 3.26 GiB (66%)
Title : Miracle on 34th Street (1947) [Eng, Ukr.Sub] 720p [Hurtom]
Writing library : core 76 r1271 496d79d
Encoding settings : cabac=1 / ref=5 / deblock=1:0:0 / analyse=0x3:0x113 / me=umh / subme=7 / psy=1 / psy_rd=1.0:0.0 / mixed_ref=1 / me_range=16 / chroma_me=1 / trellis=1 / 8x8dct=1 / cqm=0 / deadzone=21,11 / chroma_qp_offset=-2 / threads=6 / nr=0 / decimate=1 / mbaff=0 / bframes=3 / b_pyramid=0 / b_adapt=1 / b_bias=0 / direct=1 / wpredb=1 / keyint=250 / keyint_min=25 / scenecut=40 / rc_lookahead=40 / rc=2pass / mbtree=1 / bitrate=4981 / ratetol=1.0 / qcomp=0.60 / qpmin=10 / qpmax=51 / qpstep=4 / cplxblur=20.0 / qblur=0.5 / ip_ratio=1.40 / aq=1:1.00
Language : English
Default : Yes
Forced : No

Audio #1
ID : 2
Format : AC-3
Format/Info : Audio Coding 3
Mode extension : CM (complete main)
Format settings, Endianness : Big
Codec ID : A_AC3
Duration : 1h 36mn
Bit rate mode : Constant
Bit rate : 640 Kbps
Channel count : 6 channels
Channel positions : Front: L C R, Side: L R, LFE
Sampling rate : 48.0 KHz
Bit depth : 16 bits
Compression mode : Lossy
Stream size : 441 MiB (9%)
Title : UKR (UAVocie)
Language : Ukrainian
Default : No
Forced : No

Audio #2
ID : 3
Format :
Format/Info : Digital Theater Systems
Mode : 16
Format settings, Endianness : Big
Codec ID : A_DTS
Duration : 1h 36mn
Bit rate mode : Constant
Bit rate : 1 509 Kbps
Channel count : 6 channels
Channel positions : Front: L C R, Side: L R, LFE
Sampling rate : 48.0 KHz
Bit depth : 24 bits
Compression mode : Lossy
Stream size : 1.02 GiB (21%)
Title : 5.1 @ 1536 kbps
Language : English
Default : No
Forced : No

Audio #3
ID : 4
Format : AC-3
Format/Info : Audio Coding 3
Mode extension : CM (complete main)
Format settings, Endianness : Big
Codec ID : A_AC3
Duration : 1h 36mn
Bit rate mode : Constant
Bit rate : 224 Kbps
Channel count : 2 channels
Channel positions : Front: L R
Sampling rate : 48.0 KHz
Bit depth : 16 bits
Compression mode : Lossy
Stream size : 154 MiB (3%)
Title : 2.0 @ 224 kbps - Commentary
Language : English
Default : No
Forced : No

Text #1
ID : 5
Format : UTF-8
Codec ID : S_TEXT/UTF8
Codec ID/Info : UTF-8 Plain Text
Title : UKR Blu Ray
Language : Ukrainian
Default : No
Forced : No

Text #2
ID : 6
Format : UTF-8
Codec ID : S_TEXT/UTF8
Codec ID/Info : UTF-8 Plain Text
Title : ENG
Language : English
Default : No
Forced : No
Скріншоти




















































Ось тута можна завантажити собі кольорову версію - "Диво на 34-й вулиці [кольорова версія] "


Джерело: uavoice.com & PublicHD & ua-torrent.net
Особиста оцінка: 10 - без зайвих вагань рекомендую всім!


Авторський реліз (завантажувати можна без реєстрації)
 Трекер:    Зареєстрований   

Завантажити / скачати фільм українською



відео для новачків



 Зареєстрований:   2014-01-10 02:01
 Розмір:   4.95 GB 
 Оцінка фільму:   10/10 (Голосів: 7)
   
Ваш часовий пояс: GMT + 2 Години

Нова тема   Відповісти