Завантажити та скачати торренти українською


Диво на 34-й вулиці [кольорова версія] / Miracle on 34th Street [Colorized] (1947) Ukr/Eng | Sub Ukr/Eng

Нові коментарі

Нова тема   Відповісти
Автор Повідомлення
BOOGud 
VIP


З нами з: 06.03.12
Востаннє: 11.11.16
Повідомлень: 907

2013-12-31 09:09  
Диво на 34-й вулиці [кольорова версія] / Miracle on 34th Street [Colorized](1947) Ukr/Eng | Sub Ukr/Eng

Диво на 34-й вулиці [кольорова версія] / Miracle on 34th Street [Colorized] (1947) Ukr/Eng | Sub Ukr/Eng


Багацько інших гарнючих постерів








Жанр: комедія, драма, родинний
Країна: США



Кінокомпанія: Twentieth Century Fox Film Corporation
Режисер: Джордж Сітон (George Seaton)
Актори:Маурін О'Гара (Maureen O'Hara), Джон Пейн (John Payne), Едмунд Ґвенн (Edmund Gwenn), Джин Локгарт (Gene Lockhart), Наталі Вуд (Natalie Wood) та інші.

Сюжет:
Під час параду, влаштованого крупним магазином напередодні Різдва, актор, який був повинен грати Санта Клауса, виявився п'яний наче чіп. Режисер параду, Доріс Вокер, умовляє перехожого старого Кріса Крінґла зайняти місце Санти.


Перемоги і номінації

Оскар, 1948 рік
Переможець (3):
Найкраща чоловіча роль другого плану (Едмунд Ґвенн)
Найкращий сюжет
Найкращий адаптований сценарій


Номінації (1):
Найкращий фільм


Золотий глобус, 1948 рік
Переможець (2):
Найкраща чоловіча роль другого плану (Едмунд Ґвенн)
Найкращий сценарій


Тривалість: 01:36:24
Якість:
Відео:
кодек:
розмір кадру: 720 x 544
бітрейт: 1 675 кб/с

Аудіо # 1:
мова: українська
переклад: багатоголосий закадровий | UAVoice
кодек: 5.1
бітрейт: 640 кб/с

Переклад : із Blu Ray
Озвучення: Людмила Швець, Сергій Аквіла, Дмитро Урсуляк
Монтаж та робота зі звуком:Дмитро Урсуляк (BOOGud)
Об'ємний звук(5.1): BOOGud
Обкладинки:

Аудіо # 2:
мова: англійська
переклад: оригінал
кодек: 5.1
бітрейт: 448 кб/с

Субтитри:
мова: українські
тип: програмні (м'які)
формат: *.srt
джерело субтитрів: Blu Ray, обробка - w2958l

Субтитри #2:
мова: англійська
тип: програмні (м'які)
формат: *.srt
MediaInfo

General
Complete name : K:\ozvuchka2\!doneeeee\Miracle.on.34th.Street.(1947).[Colorized][Ukr.Eng]..[UAVoice]\Miracle.on.34th.Street.(1947).[Colorized][Ukr.Eng]..[UAVoice].avi
Format : AVI
Format/Info : Audio Video Interleave
File size : 1.87 GiB
Duration : 1h 36mn
Overall bit rate : 2 777 Kbps
Writing application : VirtualDubMod 1.5.10.2 (build 2540/release)
Writing library : VirtualDubMod build 2540/release

Video
ID : 0
Format : MPEG-4 Visual
Format profile : Advanced [email protected]
Format settings, BVOP : 1
Format settings, QPel : No
Format settings, GMC : No warppoints
Format settings, Matrix : Custom
Codec ID :
Codec ID/Hint :
Duration : 1h 36mn
Bit rate : 1 675 Kbps
Width : 720 pixels
Height : 544 pixels
Display aspect ratio : 4:3
Frame rate : 23.976 fps
Color space : YUV
Chroma subsampling : 4:2:0
Bit depth : 8 bits
Scan type : Progressive
Compression mode : Lossy
Bits/(Pixel*Frame) : 0.178
Stream size : 1.13 GiB (60%)
Writing library : 1.2.1 (UTC 2008-12-04)

Audio #1
ID : 1
Format : AC-3
Format/Info : Audio Coding 3
Mode extension : CM (complete main)
Format settings, Endianness : Big
Codec ID : 2000
Duration : 1h 36mn
Bit rate mode : Constant
Bit rate : 640 Kbps
Channel count : 6 channels
Channel positions : Front: L C R, Side: L R, LFE
Sampling rate : 48.0 KHz
Bit depth : 16 bits
Compression mode : Lossy
Stream size : 441 MiB (23%)
Alignment : Split accross interleaves
Interleave, duration : 42 ms (1.00 video frame)
Interleave, preload duration : 500 ms
Language : English

Audio #2
ID : 2
Format : AC-3
Format/Info : Audio Coding 3
Mode extension : CM (complete main)
Format settings, Endianness : Big
Codec ID : 2000
Duration : 1h 36mn
Bit rate mode : Constant
Bit rate : 448 Kbps
Channel count : 6 channels
Channel positions : Front: L C R, Side: L R, LFE
Sampling rate : 48.0 KHz
Bit depth : 16 bits
Compression mode : Lossy
Stream size : 309 MiB (16%)
Alignment : Split accross interleaves
Interleave, duration : 42 ms (1.00 video frame)
Interleave, preload duration : 500 ms
Скріншоти






























































Джерело: uavoice.com & kickass.to & ua-torrent.net
Особиста оцінка: 10 - без зайвих вагань рекомендую всім!


Авторський реліз (завантажувати можна без реєстрації)
 Трекер:    Зареєстрований   

Завантажити / скачати фільм українською



відео для новачків



 Зареєстрований:   2014-01-10 02:35
 Розмір:   1.87 GB 
 Оцінка фільму:   9.7/10 (Голосів: 26)
   
omm 
Відео Гуртом - фільмокрай
Відео Гуртом - фільмокрай


З нами з: 12.06.12
Востаннє: 05.12.16
Повідомлень: 2066

2013-12-31 18:16  
Сьогодні часом не буде? Щоб було що вночі подивитись
Forestelf 
VIP


З нами з: 06.02.09
Востаннє: 21.01.16
Повідомлень: 894

2014-01-10 18:31  
10 хвилина: 8 ложечок цукру і не перемішувати, бо я не люблю сололодкого! Happy
stepan-himka 
Свій


З нами з: 24.03.10
Востаннє: 24.11.16
Повідомлень: 139

2014-01-11 00:44  
Класний фільм, купа позитиву і хорошого настрою!
Лукавий 
Частий відвідувач


З нами з: 06.09.09
Востаннє: 05.12.16
Повідомлень: 38

2014-01-11 16:52  
Дійсно класне кіно, найдобріший фільм з тих, що я бачив!
Nik111111 
Модератор літератури


З нами з: 10.01.12
Востаннє: 05.12.16
Повідомлень: 1964

2014-01-12 17:47  
Переклад дуже добрий) Робите успіхи)
Maters 
VIP


З нами з: 27.03.12
Востаннє: 05.12.16
Повідомлень: 1159

2015-02-25 09:26  
Дуже сподобалось озвучення, ніби й незичні голоси, але під час перегляду дуже швидко адаптуєшся до них))
А сам фільм так собі. Завантажив, бо побачив багато схвальних відгуків і рейтинг 7.9

boroznaya 
VIP


З нами з: 02.11.12
Востаннє: 05.12.16
Повідомлень: 1872

2015-04-15 12:35  
Один з моїх улюблених Новорічних фільмів, та ще й в кольорі, мммм! Спасибі Вам!
Ваш часовий пояс: GMT + 2 Години

Нова тема   Відповісти