Завантажити та скачати торренти українською


Диво на 34-й вулиці / Miracle on 34th Street (1947) Ukr/Eng | Sub Ukr/Eng

Нові коментарі

Нова тема   Відповісти
Автор Повідомлення
BOOGud 
VIP


З нами з: 06.03.12
Востаннє: 11.11.16
Повідомлень: 907

2013-12-31 09:01  
Диво на 34-й вулиці / Miracle on 34th Street (1947) Ukr/Eng | Sub Ukr/Eng

Диво на 34-й вулиці / Miracle on 34th Street (1947) Ukr/Eng | Sub Ukr/Eng


Багацько інших гарнючих постерів








Жанр: комедія, драма, родинний
Країна: США



Кінокомпанія: Twentieth Century Fox Film Corporation
Режисер: Джордж Сітон (George Seaton)
Актори:Маурін О'Гара (Maureen O'Hara), Джон Пейн (John Payne), Едмунд Ґвенн (Edmund Gwenn), Джин Локгарт (Gene Lockhart), Наталі Вуд (Natalie Wood) та інші.

Сюжет:
Під час параду, влаштованого крупним магазином напередодні Різдва, актор, який був повинен грати Санта Клауса, виявився п'яний наче чіп. Режисер параду, Доріс Вокер, умовляє перехожого старого Кріса Крінґла зайняти місце Санти.


Перемоги і номінації

Оскар, 1948 рік
Переможець (3):
Найкраща чоловіча роль другого плану (Едмунд Ґвенн)
Найкращий сюжет
Найкращий адаптований сценарій


Номінації (1):
Найкращий фільм


Золотий глобус, 1948 рік
Переможець (2):
Найкраща чоловіча роль другого плану (Едмунд Ґвенн)
Найкращий сценарій


Тривалість: 01:36:24
Якість:
Відео:
кодек:
розмір кадру: 704 х 512
бітрейт: 1 763 кб/с

Аудіо # 1:
мова: українська
переклад: багатоголосий закадровий | UAVoice
кодек: 5.1
бітрейт: 640 кб/с

Переклад : із Blu Ray
Озвучення: Людмила Швець, Сергій Аквіла, Дмитро Урсуляк
Монтаж та робота зі звуком:Дмитро Урсуляк (BOOGud)
Об'ємний звук(5.1): BOOGud
Обкладинки:

Аудіо # 2:
мова: англійська
переклад: оригінал
кодек: 5.1
бітрейт: 384 кб/с

Субтитри:
мова: українські
тип: програмні (м'які)
формат: *.srt
джерело субтитрів: Blu Ray, обробка - w2958l

Субтитри 2:
мова: англійська
тип: програмні (м'які)
формат: *.srt
MediaInfo

General
Complete name : D:\films2\!720\Miracle.on.34th.Street.(1947).[Ukr.Eng]..[UAVoice]\Miracle.on.34th.Street.(1947).[Ukr.Eng]..[UAVoice].avi
Format : AVI
Format/Info : Audio Video Interleave
File size : 1.89 GiB
Duration : 1h 36mn
Overall bit rate : 2 801 Kbps
Movie name : Чудо на 34-й улице / Miracle on 34th Street (1947)
Director : sociolog_melvas
Genre : фэнтези, драма, мелодрама
Writing application : VirtualDubMod 1.5.10.2 (build 2540/release)
Writing library : VirtualDubMod build 2540/release
Copyright : http://hqclub.net/
Comment : 06.02.2012

Video
ID : 0
Format : MPEG-4 Visual
Format profile : Advanced [email protected]
Format settings, BVOP : 1
Format settings, QPel : No
Format settings, GMC : No warppoints
Format settings, Matrix : Custom
Codec ID :
Codec ID/Hint :
Duration : 1h 36mn
Bit rate : 1 763 Kbps
Width : 704 pixels
Height : 512 pixels
Display aspect ratio : 1.375
Frame rate : 23.976 fps
Color space : YUV
Chroma subsampling : 4:2:0
Bit depth : 8 bits
Scan type : Progressive
Compression mode : Lossy
Bits/(Pixel*Frame) : 0.204
Stream size : 1.19 GiB (63%)
Writing library : 64

Audio #1
ID : 1
Format : AC-3
Format/Info : Audio Coding 3
Mode extension : CM (complete main)
Format settings, Endianness : Big
Codec ID : 2000
Duration : 1h 36mn
Bit rate mode : Constant
Bit rate : 640 Kbps
Channel count : 6 channels
Channel positions : Front: L C R, Side: L R, LFE
Sampling rate : 48.0 KHz
Bit depth : 16 bits
Compression mode : Lossy
Stream size : 441 MiB (23%)
Alignment : Split accross interleaves
Interleave, duration : 42 ms (1.00 video frame)
Interleave, preload duration : 500 ms

Audio #2
ID : 2
Format : AC-3
Format/Info : Audio Coding 3
Mode extension : CM (complete main)
Format settings, Endianness : Big
Codec ID : 2000
Duration : 1h 36mn
Bit rate mode : Constant
Bit rate : 384 Kbps
Channel count : 6 channels
Channel positions : Front: L C R, Side: L R, LFE
Sampling rate : 48.0 KHz
Bit depth : 16 bits
Compression mode : Lossy
Stream size : 265 MiB (14%)
Alignment : Split accross interleaves
Interleave, duration : 42 ms (1.00 video frame)
Interleave, preload duration : 500 ms
Скріншоти






















































Ось тута можна завантажити собі кольорову версію - "Диво на 34-й вулиці [кольорова версія] "


Джерело: uavoice.com & HQCLUB & ua-torrent.net
Особиста оцінка: 10 - без зайвих вагань рекомендую всім!


Авторський реліз (завантажувати можна без реєстрації)
 Трекер:    Зареєстрований   

Завантажити / скачати фільм українською



відео для новачків



 Зареєстрований:   2014-01-10 02:24
 Розмір:   1.89 GB 
 Оцінка фільму:   10/10 (Голосів: 8)
   
omm 
Відео Гуртом - фільмокрай
Відео Гуртом - фільмокрай


З нами з: 12.06.12
Востаннє: 05.12.16
Повідомлень: 2066

2013-12-31 09:06  
Новорічні сюрпризи продовжуються. Шикарно! Чекатиму релізу і обов'язково подивлюся у свята.
bogdan8249 
Відео Гуртом - фільмокрай
Відео Гуртом - фільмокрай


З нами з: 09.08.08
Востаннє: 04.12.16
Повідомлень: 1112

2013-12-31 14:06  
Якщо у вас на одному анонсі (майбутньому релізі) написано "кольорова версія", то цей реліз чорно-білий?
omm 
Відео Гуртом - фільмокрай
Відео Гуртом - фільмокрай


З нами з: 12.06.12
Востаннє: 05.12.16
Повідомлень: 2066

2013-12-31 17:41  
bogdan8249 написано:
то цей реліз чорно-білий?

ну логічно

Лукавий 
Частий відвідувач


З нами з: 06.09.09
Востаннє: 05.12.16
Повідомлень: 38

2014-01-09 23:13  
Ну коли вже зробите? Всі зимові свята закінчились вже, так і зима скоро закінчиться, поки фільм з'явиться!)))
boroznaya 
VIP


З нами з: 02.11.12
Востаннє: 05.12.16
Повідомлень: 1872

2015-04-15 12:33  
Дивовижний фільм!
Ваш часовий пояс: GMT + 2 Години

Нова тема   Відповісти