Завантажити та скачати торренти українською


Плезентвіль / Pleasantville (1998) 720p Ukr/Eng | Sub Ukr/Eng

Нові коментарі

Нова тема   Відповісти
Автор Повідомлення
leroykendall 
Модератор HD


З нами з: 03.01.11
Востаннє: 20.11.16
Повідомлень: 749

2013-12-29 20:42  
Плезентвіль / Pleasantville (1998) 720p Ukr/Eng | Sub Ukr/Eng



«Nothing Is As Simple As Black And White.»
Альтернативний постер

Жанр: комедія, драма, фентезі
Країна: США






Кінокомпанія: New Line Cinema, Larger Than Life Productions
Режисер: Ґері Росс (Gary Ross)
Актори: Тобі Магвайр (Tobey Maguire), Різ Візерспун (Reese Witherspoon), Вільям Г. Мейсі (William H. Macy), Джоан Ален (Joan Allen), Джеф Деніелс (Jeff Daniels), Джей Ті Волш (J.T. Walsh), Дон Нотс (Don Knotts), Марлі Шелтон (Marley Shelton), Джейн Качмарек (Jane Kaczmarek), Джузепе Ендрюс (Giuseppe Andrews), Пол Вокер (Paul Walker)

Сюжет:
У фільмі двоє сучасних підлітків містичним чином потрапляють до уявного середовища Плезeнтвіля, чорно-білого телевізійного шоу 1950-х років. У Плезeнтвілі живуть винятково щасливі родини, тут завжди чудова погода та ніколи не стається катастроф. Утопія в «Плезeнтвілі» переростає в антиутопію, бо перед нами цілковито механічний світ, позбавлений труднощів і водночас радощів життя. Проте коли до нього потрапляють американські підлітки з дев’яностих, Плезeнтвіль отримує всі барви веселки. Їхні дії призводять до того, що люди Плезeнтвіля вчаться відчувати сильні емоції, що, в свою чергу, викликає вихід подій за межі звичних усім норм.


Тривалість: 02:04:31
Якість: 720p
Відео:
кодек:
розмір кадру: 1280 х 720
бітрейт: 6809 кб/с

Аудіо # 1:
мова: українська
переклад: двоголосий закадровий
кодек: 5.1
бітрейт: 1536 кб/с
Інформація про озвучення
Ролі озвучили: Олег Лепенець і Лариса Руснак

Фільм перекладено і озвучено на студії телеканалу Новий
Аудіо # 2:
мова: англійська
переклад: оригінал
кодек: 5.1
бітрейт: 1536 кб/с

Субтитри:
мова: українська
тип: програмні (м'які)
формат: *.srt

Субтитри:
мова: англійська
тип: програмні (м'які)
формат: *.srt

Збережені оригінальні чаптери як на Blu-ray.
MediaInfo
Код:
General
Unique ID                                : 219356422451790136154036056790949051473 (0xA506829FB3A87A43BCA47FFFDD6A3C51)
Complete name                            : V:\Pleasantville (1998) [Ukr, Eng] 720p [Hurtom, HDClub] by leroykendall.mkv
Format                                   : Matroska
Format version                           : Version 4 / Version 2
File size                                : 8.72 GiB
Duration                                 : 2h 4mn
Overall bit rate                         : 10.0 Mbps
Movie name                               : Pleasantville (1998) [Ukr, Eng] 720p [Hurtom, HDClub] by leroykendall
Encoded date                             : UTC 2013-12-29 17:16:21
Writing application                      : mkvmerge v6.2.0 ('Promised Land') built on Apr 28 2013 12:22:01
Writing library                          : libebml v1.3.0 + libmatroska v1.4.0

Video
ID                                       : 1
Format                                   : AVC
Format/Info                              : Advanced Video Codec
Format profile                           : [email protected]
Format settings, CABAC                   : Yes
Format settings, ReFrames                : 8 frames
Codec ID                                 : V_MPEG4/ISO/AVC
Duration                                 : 2h 4mn
Bit rate                                 : 6 809 Kbps
Width                                    : 1 280 pixels
Height                                   : 720 pixels
Display aspect ratio                     : 16:9
Frame rate mode                          : Constant
Frame rate                               : 23.976 fps
Color space                              : YUV
Chroma subsampling                       : 4:2:0
Bit depth                                : 8 bits
Scan type                                : Progressive
Bits/(Pixel*Frame)                       : 0.308
Stream size                              : 5.92 GiB (68%)
Title                                    : Pleasantville (1998) 720p [Hurtom, HDClub]
Writing library                          : core 114 r1900 60ef1f8
Encoding settings                        : cabac=1 / ref=8 / deblock=1:-3:-2 / analyse=0x3:0x113 / me=umh / subme=10 / psy=1 / psy_rd=1.00:0.20 / mixed_ref=1 / me_range=32 / chroma_me=1 / trellis=2 / 8x8dct=1 / cqm=0 / deadzone=21,11 / fast_pskip=0 / chroma_qp_offset=-3 / threads=9 / sliced_threads=0 / nr=0 / decimate=1 / interlaced=0 / constrained_intra=0 / bframes=12 / b_pyramid=2 / b_adapt=2 / b_bias=0 / direct=1 / weightb=1 / open_gop=0 / weightp=2 / keyint=250 / keyint_min=23 / scenecut=40 / intra_refresh=0 / rc_lookahead=40 / rc=crf / mbtree=0 / crf=18.0 / qcomp=0.65 / qpmin=10 / qpmax=51 / qpstep=4 / vbv_maxrate=50000 / vbv_bufsize=62500 / crf_max=0.0 / nal_hrd=none / ip_ratio=1.40 / pb_ratio=1.30 / aq=2:0.90
Language                                 : English
Default                                  : Yes
Forced                                   : No

Audio #1
ID                                       : 2
Format                                   :
Format/Info                              : Digital Theater Systems
Mode                                     : 16
Format settings, Endianness              : Big
Codec ID                                 : A_DTS
Duration                                 : 2h 4mn
Bit rate mode                            : Constant
Bit rate                                 : 1 509 Kbps
Channel count                            : 6 channels
Channel positions                        : Front: L C R, Side: L R, LFE
Sampling rate                            : 48.0 KHz
Bit depth                                : 24 bits
Compression mode                         : Lossy
Stream size                              : 1.31 GiB (15%)
Title                                    : 5.1 @ 1536 kbps
Language                                 : Ukrainian
Default                                  : Yes
Forced                                   : No

Audio #2
ID                                       : 3
Format                                   :
Format/Info                              : Digital Theater Systems
Mode                                     : 16
Format settings, Endianness              : Big
Codec ID                                 : A_DTS
Duration                                 : 2h 4mn
Bit rate mode                            : Constant
Bit rate                                 : 1 509 Kbps
Channel count                            : 6 channels
Channel positions                        : Front: L C R, Side: L R, LFE
Sampling rate                            : 48.0 KHz
Bit depth                                : 24 bits
Compression mode                         : Lossy
Delay relative to video                  : 22ms
Stream size                              : 1.31 GiB (15%)
Title                                    : 5.1 @ 1536 kbps
Language                                 : English
Default                                  : No
Forced                                   : No

Text #1
ID                                       : 4
Format                                   : UTF-8
Codec ID                                 : S_TEXT/UTF8
Codec ID/Info                            : UTF-8 Plain Text
Language                                 : Ukrainian
Default                                  : No
Forced                                   : No

Text #2
ID                                       : 5
Format                                   : UTF-8
Codec ID                                 : S_TEXT/UTF8
Codec ID/Info                            : UTF-8 Plain Text
Language                                 : English
Default                                  : No
Forced                                   : No

Menu
00:00:00.000                             : en:New Line Cinema Logo/Opening Credits
00:00:36.369                             : en:Pleasantville Marathon
00:02:01.120                             : en:"Once Upon a Time"
00:05:59.358                             : en:Trivia
00:07:52.013                             : en:That Night
00:09:55.219                             : en:"We'll Fix You for Good"
00:12:40.718                             : en:"We're in Pleasantville?!"
00:16:58.976                             : en:"Good Morning Kids"
00:19:46.226                             : en:"Stuck in Nerdville"
00:22:55.874                             : en:The Undefeated Pleasantville Lions
00:26:35.343                             : en:Go with the Program
00:28:08.728                             : en:The Soda Shop
00:32:08.217                             : en:Lover's Lane
00:34:11.966                             : en:"Do You Want Some Cookies?"
00:36:27.226                             : en:A Red Rose
00:38:05.700                             : en:With the Universe
00:42:52.736                             : en:The Barber Shop
00:46:24.782                             : en:Betty Takes a Bath
00:48:21.898                             : en:"Fire! Fire! Cat?"
00:50:47.294                             : en:Take Five
00:53:59.569                             : en:Kind of Blue
00:55:46.760                             : en:"Stand Up for What's Right!"
00:57:57.432                             : en:What's A Mother to Do?
01:00:29.334                             : en:A Book of Art
01:02:58.733                             : en:"Those Are Not Your Cookies, Bud!"
01:05:48.903                             : en:"at Last"
01:10:35.481                             : en:From the Tree of Knowledge
01:13:16.642                             : en:Rain
01:16:50.147                             : en:A Question of Values
01:20:52.347                             : en:Caught in the Storm
01:26:15.670                             : en:A Lovely Shade of Blue
01:31:54.133                             : en:Code of Conduct
01:36:00.171                             : en:Civil Disobedience
01:42:11.375                             : en:The Trial
01:49:10.418                             : en:Farewell
01:53:14.454                             : en:"Across the Universe"
01:56:41.994                             : en:End Credits
Скріншоти:





Подяки
karvai0 за український звук 5.1 та еталонний реліз
Цитата: "Висловлюю подяку п. Snuryus, Alinea, Captain_Evidence, irinity, ToxaViking, Gashik, OlenaLviv, dish за українські субтитри."



Джерело: &


Срібний реліз (на рейтинг впливає 50% завантаженого)
 Трекер:    Зареєстрований   

Завантажити / скачати фільм українською



відео для новачків



 Зареєстрований:   2013-12-29 20:42
 Розмір:   8.72 GB 
 Оцінка фільму:   9.4/10 (Голосів: 8)
   
Інші релізи
   Плезентвіль / Pleasantville (1998) Ukr/Eng | Sub Ukr/Eng karvai0  3 / 3   2.57 GB   2013-12-28 12:06 
Віктор 
Відео Гуртом - субтитрування
Відео Гуртом - субтитрування


З нами з: 09.01.10
Востаннє: 07.12.16
Повідомлень: 8663

2013-12-29 21:49  
leroykendall написано:
за український професійний дубльований звук 5.1


То є так?))

leroykendall 
Модератор HD


З нами з: 03.01.11
Востаннє: 20.11.16
Повідомлень: 749

2013-12-29 23:34  
Віктор
Авжеж ні Happy Копіпаст помилка. Виправив. Дякую.

ninenine 
Відео Гуртом - фільмокрай
Відео Гуртом - фільмокрай


З нами з: 23.10.09
Востаннє: 07.12.16
Повідомлень: 1147

2014-01-01 18:14  
Чудовий фільм, дуже сподобався 9 з 10.
Ваш часовий пояс: GMT + 2 Години

Нова тема   Відповісти