Завантажити та скачати торренти українською


Ріддік / Riddick (2013) ВDRip 720р Ukr/Eng

Нові коментарі

Нова тема   Відповісти
Автор Повідомлення
Sando7 
Відео Гуртом - запис з ТБ
Відео Гуртом - запис з ТБ


З нами з: 04.05.09
Востаннє: 04.12.16
Повідомлень: 837

2013-12-27 22:21  
Ріддік / Riddick (2013) ВDRip 720р Ukr/Eng

Ріддік / Riddick (2013) ВDRip 720р Ukr/Eng


Жанр: екшн, фантастика, трилер
Країна: США, Велика Британія



Кінокомпанія: One Race Productions, Radar Pictures, Riddick Canada Productions
Режисер: Девід Туї / David Twohy
Актори: Він Дизель / Vin Diesel, Карл Урбан / Karl Urban, Йорді Молья / Jordi Mollà, Кеті Сакгоф / Katee Sackhoff, Дейв Батіста / Dave Batista, Букем Вудбейн / Bokeem Woodbine та інші

Сюжет:
Зраджений своїми і кинутий вмирати на пустельній планеті, Ріддік бореться з хижаками за життя і стає сильнішим і небезпечнішим ніж будь-коли. Галактичні найманці, що відкрили на нього полювання, виявляються тільки пішаками в грандіозному плані помсти. З ворогами, що виникають на його шляху тоді, коли це потрібно самому Ріддіку, він починає похід в ім'я помсти, щоб в кінці повернутися на рідну Фурію і врятувати її від знищення...


Тривалість: 01:58:40
Якість: 720p
Відео:
кодек:
розмір кадру: 1280 х 534
бітрейт: 5086 кб/с

Аудіо # 1:
мова: українська
переклад: професійний дубльований
кодек: 2.0
бітрейт: 192 кб/с

Аудіо # 2:
мова: англійська
переклад: оригінал
кодек: 5.1
бітрейт: 640 кб/с

Субтитри:
мова: англійська
тип: програмні (м'які)
формат: *.srt
MediaInfo
Complete name : D:\Riddick (2013) 720p [Ukr,Eng] [Hurtom].mkv
Format : Matroska
Format version : Version 1
File size : 5.02 GiB
Duration : 1h 58mn
Overall bit rate : 6 055 Kbps
Encoded date : UTC 2013-12-28 09:27:26
Writing application : mkvmerge v2.4.1 ('Use Me') built on Dec 5 2008 18:30:05
Writing library : libebml v0.7.7 + libmatroska v0.8.1

Video
ID : 1
Format : AVC
Format/Info : Advanced Video Codec
Format profile : [email protected]
Format settings, CABAC : Yes
Format settings, ReFrames : 12 frames
Codec ID : V_MPEG4/ISO/AVC
Duration : 1h 58mn
Bit rate : 5 103 Kbps
Width : 1 280 pixels
Height : 534 pixels
Display aspect ratio : 2.40:1
Frame rate mode : Constant
Frame rate : 23.976 fps
Color space : YUV
Chroma subsampling : 4:2:0
Bit depth : 8 bits
Scan type : Progressive
Bits/(Pixel*Frame) : 0.311
Stream size : 4.23 GiB (84%)
Writing library : core 140 r2377+40 929f149 tMod [[email protected]:2:0 X86_64]
Encoding settings : cabac=1 / ref=12 / deblock=1:-3:-3 / analyse=0x3:0x113 / me=umh / subme=11 / psy=1 / fade_compensate=0.00 / psy_rd=1.05:0.00 / mixed_ref=1 / me_range=32 / chroma_me=1 / trellis=2 / 8x8dct=1 / cqm=0 / deadzone=21,11 / fast_pskip=0 / chroma_qp_offset=-2 / threads=18 / lookahead_threads=3 / sliced_threads=0 / nr=0 / decimate=0 / interlaced=0 / bluray_compat=0 / constrained_intra=0 / fgo=0 / bframes=8 / b_pyramid=2 / b_adapt=2 / b_bias=0 / direct=3 / weightb=1 / open_gop=0 / weightp=2 / keyint=240 / keyint_min=24 / scenecut=40 / intra_refresh=0 / rc=crf / mbtree=0 / crf=17.0000 / qcomp=0.70 / qpmin=0:0:0 / qpmax=69:69:69 / qpstep=4 / ip_ratio=1.15 / pb_ratio=1.15 / aq=4:0.85 / aq-sensitivity=10.00 / aq-factor=1.00:1.00:1.00 / aq2=0 / aq3=0
Language : English
Default : Yes
Forced : No

Audio #1
ID : 2
Format : AC-3
Format/Info : Audio Coding 3
Mode extension : CM (complete main)
Format settings, Endianness : Big
Codec ID : A_AC3
Duration : 1h 58mn
Bit rate mode : Constant
Bit rate : 192 Kbps
Channel count : 2 channels
Channel positions : Front: L R
Sampling rate : 48.0 KHz
Bit depth : 16 bits
Compression mode : Lossy
Stream size : 163 MiB (3%)
Title : Ukr_Line
Language : Ukrainian
Default : Yes
Forced : No

Audio #2
ID : 3
Format : AC-3
Format/Info : Audio Coding 3
Mode extension : CM (complete main)
Format settings, Endianness : Big
Codec ID : A_AC3
Duration : 1h 58mn
Bit rate mode : Constant
Bit rate : 640 Kbps
Channel count : 6 channels
Channel positions : Front: L C R, Side: L R, LFE
Sampling rate : 48.0 KHz
Bit depth : 16 bits
Compression mode : Lossy
Stream size : 543 MiB (11%)
Language : English
Default : No
Forced : No

Text
ID : 4
Format : UTF-8
Codec ID : S_TEXT/UTF8
Codec ID/Info : UTF-8 Plain Text
Language : English
Default : Yes
Forced : No

Menu
00:00:00.000 : en:
00:08:22.668 : en:
00:19:44.600 : en:
00:30:00.799 : en:
00:42:49.316 : en:
00:51:07.814 : en:
01:03:07.950 : en:
01:11:46.844 : en:
01:21:01.857 : en:
01:33:41.324 : en:
01:44:40.774 : en:
01:54:50.925 : en:
Скріншоти


Джерело:
Особиста оцінка: 7 - моїй подрузі не сподобалося


 Трекер:    Зареєстрований   

Завантажити / скачати фільм українською



відео для новачків



 Зареєстрований:   2013-12-28 11:59
 Розмір:   5.02 GB 
 Оцінка фільму:   9.3/10 (Голосів: 22)
   
Інші релізи
   Ріддік [Розширена версія] / Riddick [Extended Cut] (2013) ВDRip 1080p H.265 2хUkr/Eng | Sub Ukr/Eng Tenax555  5 / 0   8.59 GB   2014-09-09 19:58 
   Ріддік [Розширена версія] / Riddick [Extended Cut] (2013) ВDRip 2хUkr patriot2305  7 / 0   2.13 GB   2014-05-05 19:18 
   Ріддік / Riddick (2013) ВDRip 2хUkr/Eng patriot2305  3 / 0   2.19 GB   2014-04-29 20:41 
   Ріддік / Riddick (2013) ВDRip patriot2305  4 / 0   1.45 GB   2013-12-28 12:57 
   Ріддік / Riddick (2013) AVC patriot2305  3 / 0   1.71 GB   2013-12-28 10:04 
   Ріддік / Riddick (2013) 1080p Ukr/Eng Vladdrako17  3 / 0   3.85 GB   2013-12-19 19:01 
bot 
робот


З нами з: 30.09.07
Востаннє: 26.05.05
Повідомлень: 15983

2013-12-28 11:59  
Тему перенесено з Пісочниця до форуму Фільми в HD


Sando7

Ваш часовий пояс: GMT + 2 Години

Нова тема   Відповісти