Завантажити та скачати торренти українською


Операція Валькірія / Valkyrie (2008) 720p-mini

Нові коментарі

Нова тема   Відповісти
Автор Повідомлення
Drool 
VIP


З нами з: 17.04.10
Востаннє: 09.12.16
Повідомлень: 1270

2013-12-26 09:05  
Операція Валькірія / Valkyrie (2008) 720p-mini

Жанр: драма, історичний, трилер
Країна: США, Німеччина



Кінокомпанія: Metro-Goldwyn-Mayer (MGM), United Artists, Bad Hat Harry Productions
Режисер: Браян Сінґер
Актори: Том Круз, Кеннет Брана, Білл Найї, Том Уілкінсон, Керіс Ван Гутен, Томас Кречманн, Теренс Стемп, Едді Іззард, Кевін МакНаллі, Крістіан Беркель, Джемі Паркер, Девід Бамбер, Том Холландер, Девід Скофілд, Кеннет Грехем

Сюжет:
Історія героя опору полковника Клауса фон Штауффенберга, що очолив змову проти Гітлера. У 1944 році він спробував підірвати диктатора.Він приніс в портфелі бомбу, але все, що йому удалося — лише поранити Гітлера.


Тривалість: 02:00:20
Якість: 720p-mini
Відео:
кодек:
розмір кадру: 1280x690
бітрейт: 2805 кб/с

Аудіо:
мова: українська
переклад: професійний дубльований
кодек: 5.1
бітрейт: 448 кб/с

Джерело озвучення:


Субтитри:
мова: українська
тип: програмні (м'які) форсовані
формат: *.srt
MediaInfo
General
Unique ID : 183871596226012391339071640279949371237 (0x8A54619D7E17E6CA3981074D89C9E765)
Complete name : /mnt/disk/Video/Valkyrie.2008.Ukr.Dub..720p-mini.mkv
Format : Matroska
File size : 2.73 GiB
Duration : 2h 0mn
Overall bit rate : 3 252 Kbps
Movie name : Операція Валькірія / Valkyrie (2008) 720p-mini | video by Leonardo 59
Encoded date : UTC 2013-12-26 12:22:25
Writing application : mkvmerge v4.8.0 ('I Got The...') сборка от Aug 22 2011 13:16:28
Writing library : libebml v1.2.0 + libmatroska v1.1.0

Video
ID : 1
Format : AVC
Format/Info : Advanced Video Codec
Format profile : [email protected]
Format settings, CABAC : Yes
Format settings, ReFrames : 6 frames
Codec ID : V_MPEG4/ISO/AVC
Duration : 2h 0mn
Bit rate : 2 805 Kbps
Width : 1 280 pixels
Height : 690 pixels
Display aspect ratio : 1.855
Frame rate mode : Variable
Frame rate : 23.810 fps
Color space : YUV
Chroma subsampling : 4:2:0
Bit depth : 8 bits
Scan type : Progressive
Bits/(Pixel*Frame) : 0.133
Stream size : 2.30 GiB (84%)
Title : Операція Валькірія / Valkyrie (2008) 720p-mini | video by Leonardo 59
Writing library : core 112
Encoding settings : cabac=1 / ref=6 / deblock=1:-2:-1 / analyse=0x3:0x113 / me=umh / subme=9 / psy=1 / psy_rd=1.00:0.00 / mixed_ref=1 / me_range=16 / chroma_me=1 / trellis=2 / 8x8dct=1 / cqm=0 / deadzone=21,11 / fast_pskip=1 / chroma_qp_offset=-2 / threads=3 / sliced_threads=0 / nr=0 / decimate=1 / interlaced=0 / constrained_intra=0 / bframes=8 / b_pyramid=2 / b_adapt=2 / b_bias=0 / direct=3 / weightb=1 / open_gop=0 / weightp=2 / keyint=240 / keyint_min=23 / scenecut=40 / intra_refresh=0 / rc_lookahead=40 / rc=2pass / mbtree=1 / bitrate=2805 / ratetol=1.0 / qcomp=0.60 / qpmin=3 / qpmax=51 / qpstep=4 / cplxblur=20.0 / qblur=0.5 / ip_ratio=1.40 / aq=1:1.00
Color primaries : BT.709-5, BT.1361, IEC 61966-2-4, SMPTE RP177
Transfer characteristics : BT.709-5, BT.1361
Matrix coefficients : BT.709-5, BT.1361, IEC 61966-2-4 709, SMPTE RP177

Audio
ID : 2
Format : AC-3
Format/Info : Audio Coding 3
Mode extension : CM (complete main)
Codec ID : A_AC3
Duration : 2h 0mn
Bit rate mode : Constant
Bit rate : 448 Kbps
Channel(s) : 6 channels
Channel positions : Front: L C R, Side: L R, LFE
Sampling rate : 48.0 KHz
Bit depth : 16 bits
Compression mode : Lossy
Stream size : 386 MiB (14%)
Title : Рідна мова
Language : Ukrainian

Text
ID : 3
Format : UTF-8
Codec ID : S_TEXT/UTF8
Codec ID/Info : UTF-8 Plain Text
Title : Українські (форсовані)
Language : Ukrainian
Скріншоти









Походження: Відеоряд взято з ріпу
Особиста оцінка: 10 - без зайвих вагань рекомендую всім!


 Трекер:    Зареєстрований   

Завантажити / скачати фільм українською



відео для новачків



 Зареєстрований:   2013-12-26 14:38
 Розмір:   2.73 GB 
 Оцінка фільму:   10/10 (Голосів: 10)
   
Інші релізи
   Операція Валькірія / Valkyrie (2008) AVC Ukr/Eng Yarik M  1 / 0   3.05 GB   2014-06-03 10:32 
   Операція Валькірія / Valkyrie (2008) Ukr/Eng | Sub 2xUkr/Eng Xshot  5 / 0   2.18 GB   2013-07-13 18:21 
   Операція Валькірія / Valkyrie (2008) 1080p Arsenfpu  4 / 0   10.41 GB   2011-07-15 19:45 
bot 
робот


З нами з: 30.09.07
Востаннє: 26.05.05
Повідомлень: 16040

2013-12-26 09:06  
Тему перенесено з Фільми в HD до форуму Анонси релізів


Drool

bot 
робот


З нами з: 30.09.07
Востаннє: 26.05.05
Повідомлень: 16040

2013-12-26 14:38  
Тему перенесено з Анонси релізів до форуму Фільми в HD


Drool

Drool 
VIP


З нами з: 17.04.10
Востаннє: 09.12.16
Повідомлень: 1270

2013-12-26 14:44  
Заздалегідь вибачаюсь за дрібну швидкість, на роботі канал на віддачу зарізаний по самі не балуйся. Ввечері вдома також стану на роздачу.
Maters 
VIP


З нами з: 27.03.12
Востаннє: 08.12.16
Повідомлень: 1162

2014-08-24 15:21  
Захоплюючий фільм. Приємно знати, що не всі німці були такими як Гітлер. Цілих 15 змов і спроб вбити його - це нова інформація для мене)) Дякую!
RMK 
Відео Гуртом - підтримка та поширення
Відео Гуртом - підтримка та поширення


З нами з: 12.05.10
Востаннє: 09.12.16
Повідомлень: 78

2016-08-12 12:45  
Станьте хтось будь ласка на роздачу, я завантажу його на підтримку роздач)
А, і ще сам хочу дуже глянути, кажуть сильний фільм)
Дякую)

Ваш часовий пояс: GMT + 2 Години

Нова тема   Відповісти