Завантажити та скачати торренти українською


VA - Кращі українські балади [Золота колекція] (2008) [FLAC] | Folk / Ballad

Нові коментарі

Нова тема   Відповісти
Автор Повідомлення
ssTAss 
Модератор музики


З нами з: 05.07.08
Востаннє: 05.12.16
Повідомлень: 10939

2013-12-24 23:24  
VA - Кращі українські балади [Золота колекція] (2008) [FLAC] | Folk / Ballad

VA - Кращі українські балади [Золота колекція] (2008) [FLAC] | Folk / Ballad


Стиль: Folk, Pop, Ballad
Країна: Україна
Видавець: Астра Рекордс
Виконавці:
вказані до кожного треку
Пісні:
    01. Олександр Таранець - Пісня Сергія з кінофільму "Літа молодії" ("Пісня про рушник")
    02. Ніна Матвієнко, ансамбль "Мрія" - Дикі гуси
    03. Дмитро Гнатюк - Черемшина
    04. Людмила Невзгляд - Коханий
    05. Микола Кондратюк - Цвітуть осінні тихі небеса
    06. Лілія Відаш - Відлуння кроків
    07. Дмитро Гнатюк - Летять, ніби чайки
    08. Софія Ротару - Лише раз цвіте любов
    09. Олександр Таранець - Осіннє золото
    10. ВІА "Медобори", сол. Л. Тимощук, О. Марцинківський - Три дороги
    11. ВІА "Чайка" - Чарівна скрипка
    12. ВІА "Кобза" - Люби мене
    13. Софія Ротару, ВІА "Червона рута" - Балада про дві скрипки
    14. ВІА "Смерічка", сол. Назарій Яремчук - Незрівнянний світ краси
    15. Софія Ротару - Запроси мене у сни
    16. ВІА "Смерічка", сол. Василь Зінкевич - Залишені квіти
    17. Софія Ротару, ВІА "Червона рута" - Минає день
    18. ВІА "Смерічка", сол. Василь Зінкевич, Назарій Яремчук - Пісня буде поміж нас
    19. Софія Ротару - У долі своя весна
    20. Тарас Петриненко, ВІА "Гроно" - Україна
log
Exact Audio Copy V0.99 prebeta 5 from 4. May 2009

Звіт EAC про видобування, котре виконане 19. грудня 2013, 20:43

Various / Кращі українські балади

Дисковод: SlimtypeDVD A DS8A1H Adapter: 0 ID: 0

Режим читання : Точний
Використати точний потік : Так
Вимкнути аудіо кеш : Так
Застосувати мітки C2 : Ні

Корекція зміщення при читанні : 594
Екстрачитання областей Lead-in і Lead-out : Ні
Заповнення пропущених семплів тишею : Так
Видалення блоків з тишею на початку і кінці : Ні
При вирахуванні CRC використовувались нульові семпли : Так
Використаний інтерфейс : 'Рідний' Win32-інтерфейс для Win NT/2000

Застосований вихідний формат : Кодер Користувача
Обраний бітрейт : 1024 kBit/s
Якість : Високий
Додати тег ID3 : Ні
Компресор командного рядка : C:\Program Files\Exact Audio Copy\Flac\flac.exe
Додаткові параметри командного рядка : -8 -V -T "ARTIST=%a" -T "TITLE=%t" -T "ALBUM=%g" -T "DATE=%y" -T "TRACKNUMBER=%n" -T "GENRE=%m" -T "COMMENT=EAC FLAC -8" %s

TOC видобутого CD

Трек | Старт | Довжина | Початковий сектор | Кінцевий сектор
------------------------------------------------------------------
1 | 0:00.00 | 4:09.08 | 0 | 18682
2 | 4:09.08 | 3:55.04 | 18683 | 36311
3 | 8:04.12 | 4:12.06 | 36312 | 55217
4 | 12:16.18 | 3:47.01 | 55218 | 72243
5 | 16:03.19 | 4:31.03 | 72244 | 92571
6 | 20:34.22 | 3:06.06 | 92572 | 106527
7 | 23:40.28 | 3:36.33 | 106528 | 122760
8 | 27:16.61 | 3:08.08 | 122761 | 136868
9 | 30:24.69 | 3:45.08 | 136869 | 153751
10 | 34:10.02 | 5:03.12 | 153752 | 176488
11 | 39:13.14 | 3:17.06 | 176489 | 191269
12 | 42:30.20 | 3:22.09 | 191270 | 206428
13 | 45:52.29 | 5:40.05 | 206429 | 231933
14 | 51:32.34 | 2:25.19 | 231934 | 242827
15 | 53:57.53 | 4:38.06 | 242828 | 263683
16 | 58:35.59 | 3:47.06 | 263684 | 280714
17 | 62:22.65 | 4:16.02 | 280715 | 299916
18 | 66:38.67 | 3:40.06 | 299917 | 316422
19 | 70:18.73 | 3:50.06 | 316423 | 333678
20 | 74:09.04 | 5:20.05 | 333679 | 357683

Статус діапазону і помилки

Обраний діапазон

Ім'я файлу C:\Тимчасове\Various - Кращі українські балади.wav

Піковий рівень 98.0 %
Якість діапазону 99.9 %
CRC тесту D12BE4FC
CRC копії D12BE4FC
Копіювання... OK

Помилки не траплялися

Звіт Точного Видобування

Трек 1 не присутнє в базі даних
Трек 2 не присутнє в базі даних
Трек 3 не присутнє в базі даних
Трек 4 не присутнє в базі даних
Трек 5 не присутнє в базі даних
Трек 6 не присутнє в базі даних
Трек 7 не присутнє в базі даних
Трек 8 не присутнє в базі даних
Трек 9 не присутнє в базі даних
Трек 10 не присутнє в базі даних
Трек 11 не присутнє в базі даних
Трек 12 не присутнє в базі даних
Трек 13 не присутнє в базі даних
Трек 14 не присутнє в базі даних
Трек 15 не присутнє в базі даних
Трек 16 не присутнє в базі даних
Трек 17 не присутнє в базі даних
Трек 18 не присутнє в базі даних
Трек 19 не присутнє в базі даних
Трек 20 не присутнє в базі даних

Жодного трека немає в базі AccurateRip

Кінець звіту
fooCDtect
fooCDtect - foobar2000 + auCDtect, baralgin.

auCDtect: CD records authenticity detector, version 0.8.2
Copyright (c) 2004 Oleg Berngardt. All rights reserved.
Copyright (c) 2004 Alexander Djourik. All rights reserved.

mode: 0

===========================================
Track: 01 - Пісня Сергія з кінофільму 'Літа молодії' ('Пісня про рушник')
Quality: MPEG 100%
===========================================
Track: 02 - Дикі гуси
Quality: CDDA 43%
===========================================
Track: 03 - Черемшина
Quality: CDDA 42%
===========================================
Track: 04 - Коханий
Quality: CDDA 100%
===========================================
Track: 05 - Цвітуть осінні тихі небеса
Quality: CDDA 100%
===========================================
Track: 06 - Відлуння кроків
Quality: CDDA 100%
===========================================
Track: 07 - Летять, ніби чайки
Quality: CDDA 54%
===========================================
Track: 08 - Лише раз цвіте любов
Quality: CDDA 100%
===========================================
Track: 09 - Осіннє золото
Quality: CDDA 85%
===========================================
Track: 10 - Три дороги
Quality: CDDA 100%
===========================================
Track: 11 - Чарівна скрипка
Quality: CDDA 100%
===========================================
Track: 12 - Люби мене
Quality: CDDA 100%
===========================================
Track: 13 - Балада про дві скрипки
Quality: MPEG 95%
===========================================
Track: 14 - Незрівнянний світ краси
Quality: CDDA 100%
===========================================
Track: 15 - Запроси мене у сни
Quality: CDDA 86%
===========================================
Track: 16 - Залишені квіти
Quality: CDDA 100%
===========================================
Track: 17 - Минає день
Quality: CDDA 100%
===========================================
Track: 18 - Пісня буде поміж нас
Quality: MPEG 95%
===========================================
Track: 19 - У долі своя весна
Quality: MPEG 95%
===========================================
Track: 20 - Україна
Quality: CDDA 100%
===========================================
Тривалість: 01:19:29
Мова: українська
Аудіо-кодек: FLAC
Бітрейт: 685 кб/с
Джерело: власний ріп
Додаткова інформація:
В межах серії "Золота колекція" започатковано свого роду сувенірну міні-серію – саме останню і презентує чергова збірка, "Кращі українські балади". Диски цієї міні-серії вирізняються зовнішнім оформленням – тож Ви легко зможете виокремити їх на загальному тлі. Ну а стосовно змісту – дивіться самі: О. Таранець, Н. Матвієнко, Л. Відаш, С. Ротару, Н. Яремчук, ВІА "Медобори", і т.д. Як завжди, тут Ви знайдете записи з фондів Національної радіокомпанії України – і, як завжди, частина з цих записів є рідкістю. З іншого ж боку – тут представлено справжню класику "золотих часів" української естради. Тож, гадаємо, додаткових пояснень не потрібно – ці збірки однозначно заслуговують на увагу. Особливо ж – якщо Ви збираєтесь зробити комусь легкий, але цікавий подарунок.


Якщо Ви справді бажаєте підтримати українське - після прослуховування, якщо музика вам сподобалась,
придбайте ліцензійний диск.
Підтримаймо вітчизняних виконавців!


Срібний реліз (на рейтинг впливає 50% завантаженого)
 Трекер:    Зареєстрований   

Завантажити / скачати українську музику



відео для новачків



 Зареєстрований:   2013-12-24 23:24
 Розмір:   432 MB 
 Оцінка музики:   6.6/10 (Голосів: 8)
   
ssTAss 
Модератор музики


З нами з: 05.07.08
Востаннє: 05.12.16
Повідомлень: 10939

2013-12-24 23:26  
Ваш часовий пояс: GMT + 2 Години

Нова тема   Відповісти