Завантажити та скачати торренти українською


Внизу / Beneath (2007) 1080i Ukr/Eng

Нові коментарі

Нова тема   Відповісти
Автор Повідомлення
urij546724 
Відео Гуртом - фільмокрай
Відео Гуртом - фільмокрай


З нами з: 16.03.10
Востаннє: 10.12.16
Повідомлень: 5222

2013-12-23 19:52  
Внизу / Beneath (2007) 1080i Ukr/Eng

Внизу / Beneath (2007) 1080i Ukr/Eng


Жанр: жахи, містерія, трилер
Країна: США



Кіностудія / кінокомпанія: Paramount Classics, MTV Films
Режисер: Даген Мерілл (Dagen Merrill)
Актори: Нора Зехетнер (Nora Zehetner), Бренна О'Брайен (Brenna O'Brien), Карлі Поуп (Carly Pope), Дон С. Девіс (Don S. Davis), Беатріс Зейлангер (Beatrice Zeilanger), Меттью Сеттл (Matthew Settle), Габріель Роз (Gabrielle Rose)

Сюжет:
Крісті повертається в своє рідне місто через пару років після автокатастрофи, в результаті якої постраждала її старша сестра. З події що не дає їй спокою, в якій вона була за кермом автомобіля, вона усвідомила що всі її нічні кошмари збулися... або їм ще належить збутися.
Media info
General
ID : 1 (0x1)
Complete name : E:\HD1\Beneath (2007) [ukr.ICTV_eng_AC3_2.0] 1080i [Hurtom] by urij546724.ts
Format : MPEG-TS
File size : 4.18 GiB
Duration : 1h 18mn
Overall bit rate mode : Variable
Overall bit rate : 7 583 Kbps
Maximum Overall bit rate : 35.5 Mbps

Video
ID : 4113 (0x1011)
Menu ID : 1 (0x1)
Format : AVC
Format/Info : Advanced Video Codec
Format profile : [email protected]
Format settings, CABAC : Yes
Format settings, ReFrames : 3 frames
Codec ID : 27
Duration : 1h 18mn
Bit rate mode : Variable
Bit rate : 6 820 Kbps
Maximum bit rate : 40.0 Mbps
Width : 1 920 pixels
Height : 1 080 pixels
Display aspect ratio : 16:9
Frame rate : 25.000 fps
Standard : Component
Color space : YUV
Chroma subsampling : 4:2:0
Bit depth : 8 bits
Scan type : Interlaced
Scan order : Top Field First
Bits/(Pixel*Frame) : 0.132
Stream size : 3.75 GiB (90%)
Color primaries : BT.709
Transfer characteristics : BT.709
Matrix coefficients : BT.709

Audio #1
ID : 4352 (0x1100)
Menu ID : 1 (0x1)
Format : AC-3
Format/Info : Audio Coding 3
Mode extension : CM (complete main)
Format settings, Endianness : Big
Codec ID : 129
Duration : 1h 18mn
Bit rate mode : Constant
Bit rate : 192 Kbps
Channel count : 2 channels
Channel positions : Front: L R
Sampling rate : 48.0 KHz
Bit depth : 16 bits
Compression mode : Lossy
Stream size : 108 MiB (3%)
Language : Ukrainian

Audio #2
ID : 4353 (0x1101)
Menu ID : 1 (0x1)
Format : AC-3
Format/Info : Audio Coding 3
Mode extension : CM (complete main)
Format settings, Endianness : Big
Codec ID : 129
Duration : 1h 18mn
Bit rate mode : Constant
Bit rate : 192 Kbps
Channel count : 2 channels
Channel positions : Front: L R
Sampling rate : 48.0 KHz
Bit depth : 16 bits
Compression mode : Lossy
Stream size : 108 MiB (3%)
Language : English
Тривалість: 01:18:43
Якість: 1080i
Відео:
кодек:
розмір кадру: 1920x1080
бітрейт: ~ 6756 кб/с
частота кадрів: 25 к/с (fps)

Аудіо #1:
мова: українська
переклад: багатоголосий закадровий
кодек: 2.0
бітрейт: 192 кб/с
запис звуку з каналу: ICTV

Аудіо #2:
мова: англійська
переклад: оригінал
кодек: 2.0
бітрейт: 192 кб/с

Скріншоти:





Трейлер:
Семпл
Джерело 1_________Джерело 2_________Джерело 3_________Джерело 4_________Джерело 5_________Джерело 6
У випадку, якщо з усіх джерел семпл видалять, прохання повідомити мені у ПРИВАТ


Подяка:

1. Пану Merdiff за запис звуку з ТБ.


Реліз створено:

Особиста оцінка: Ще не дивився.


 Трекер:    Зареєстрований   

Завантажити / скачати фільм українською



відео для новачків



 Зареєстрований:   2013-12-27 12:47
 Розмір:   4.18 GB 
 Оцінка фільму:   5.5/10 (Голосів: 6)
 Прохання залишати коментарі і не тікати з роздачі.
   
Інші релізи
   Гнів землі / Something Beneath (2007) 2хUkr НТН  2 / 0   1.37 GB   2015-10-14 15:58 
   Внизу / Beneath (2007) Ukr/Eng urij546724  2 / 1   1.34 GB   2013-12-28 15:35 
НТН 
Відео Гуртом - фільмокрай
Відео Гуртом - фільмокрай


З нами з: 25.12.11
Востаннє: 10.11.16
Повідомлень: 2001

2013-12-23 20:02  
Побільше б таких релізів. Дуже люблю фільми жанру "ґор".
bot 
робот


З нами з: 30.09.07
Востаннє: 26.05.05
Повідомлень: 16046

2013-12-27 12:47  
Тему перенесено з Анонси релізів до форуму Фільми

Причина перенесення: ХЗ
urij546724

ninenine 
Відео Гуртом - фільмокрай
Відео Гуртом - фільмокрай


З нами з: 23.10.09
Востаннє: 09.12.16
Повідомлень: 1147

2014-01-04 21:24  
То тільки в мене розсинхрон в цьому фільмі?
tenau 
Забанено
Забанено


З нами з: 31.10.13
Востаннє: 24.02.16
Повідомлень: 54

2014-01-09 12:49  
Кому потрібен якісний ріп 720р з виправленим звуком, пишіть у приват.
Ваш часовий пояс: GMT + 2 Години

Нова тема   Відповісти