Завантажити та скачати торренти українською


Дружина напрокат / Just Go with It (2011) 1080р Ukr/Eng | Sub Eng

Нові коментарі

Нова тема   Відповісти
Автор Повідомлення
leroykendall 
Модератор HD


З нами з: 03.01.11
Востаннє: 20.11.16
Повідомлень: 749

2013-12-21 02:18  
Дружина напрокат / Just Go with It (2011) 1080р Ukr/Eng | Sub Eng



«Sometime you need a girl, to get the girl»


Жанр: романтичний, комедія
Країна: США
Офіційний сайт: Just Go with It






Кіностудія / кінокомпанія: Columbia Pictures, Happy Madison Productions
Режисер: Денніс Дуган (Dennis Dugan)
Актори: Адам Сендлер (Adam Sandler), Дженніфер Еністон (Jennifer Aniston), Ніколь Кідман (Nicole Kidman), Нік Свардсон (Nick Swardson), Бруклин Декер (Brooklyn Decker), Бейлі Медісон (Bailee Madison), Гріффін Глук (Griffin Gluck),Дейв Метьюз (Dave Matthews), Кевін Нілон (Kevin Nealon), Рейчел Дреч (Rachel Dratch), Аллен Коверт (Allen Covert) та інші.

Сюжет:
Головний герой Денні зустрів Палмер, і щоб справити враження, розповів про свою неіснуючу дружину і тяготи сімейного життя. Замість очікуваного співчуття, Палмер хоче познайомиться з його дружиною, і Денні необхідно терміново придумати, як виплутатися з такого цікавого положення. На щастя, у нього є знайома колега Кетрін, приваблива і з дітьми, які й зіграють на час роль його сім'ї.


Тривалість: 01:56:29
Якість: 1080p
Відео:
кодек:
розмір кадру: 1920 x 1040
бітрейт: 9225кб/с

Аудіо # 1:
мова: українська
переклад: професійний дубльований
кодек: 5.1
бітрейт: 448кб/с
Інформація про озвучення
Про дублювання:
Режисер дубляжу: Ольга Фокіна
Перекладач: Сергій Ковальчук
Звукорежисери: Андрій Тріфонов і Боб Шевяков
Координатор проекту: Аліна Гаєвська
Ролі дублювали: Адам Сендлер/Денні Маккабі - Юрій Ребрик, Катерина Коновалова, Ірина Ткаленко, Едді/Нік Свардсон - Андрій Твердак, Інна Бєлікова, Михайло Войчук, Анна Голосніченко, Богдан Бащенко та iншi.
Аудіо # 2:
мова: англійська
переклад: оригінал
кодек: 5.1
бітрейт: 1536кб/с

Субтитри:
мова: англійська
тип: програмні ( м'які )
формат: UTF-8
MediaInfo
Код:
General
Unique ID                                : 173043424994181194814620067769410225379 (0x822EF38E22A0B33C80FD3082769584E3)
Complete name                            : V:\Just Go with It (2011) [Ukr, Eng] 1080p [Hurtom] by leroykendall.mkv
Format                                   : Matroska
Format version                           : Version 4 / Version 2
File size                                : 9.10 GiB
Duration                                 : 1h 56mn
Overall bit rate                         : 11.2 Mbps
Movie name                               : Just Go with It (2011) [Ukr, Eng] 1080p [Hurtom] by leroykendall
Encoded date                             : UTC 2013-12-21 10:05:27
Writing application                      : mkvmerge v6.2.0 ('Promised Land') built on Apr 28 2013 12:22:01
Writing library                          : libebml v1.3.0 + libmatroska v1.4.0

Video
ID                                       : 1
Format                                   : AVC
Format/Info                              : Advanced Video Codec
Format profile                           : [email protected]
Format settings, CABAC                   : Yes
Format settings, ReFrames                : 4 frames
Codec ID                                 : V_MPEG4/ISO/AVC
Duration                                 : 1h 56mn
Bit rate                                 : 9 225 Kbps
Width                                    : 1 920 pixels
Height                                   : 1 040 pixels
Display aspect ratio                     : 1.85:1
Frame rate mode                          : Constant
Frame rate                               : 23.976 fps
Color space                              : YUV
Chroma subsampling                       : 4:2:0
Bit depth                                : 8 bits
Scan type                                : Progressive
Bits/(Pixel*Frame)                       : 0.193
Stream size                              : 7.33 GiB (81%)
Title                                    : Just Go with It (2011) 1080p
Writing library                          : core 115 r1995 c1e60b9
Encoding settings                        : cabac=1 / ref=4 / deblock=1:0:0 / analyse=0x3:0x133 / me=umh / subme=8 / psy=1 / psy_rd=1.00:0.00 / mixed_ref=1 / me_range=16 / chroma_me=1 / trellis=1 / 8x8dct=1 / cqm=0 / deadzone=21,11 / fast_pskip=0 / chroma_qp_offset=-2 / threads=18 / sliced_threads=0 / nr=0 / decimate=1 / interlaced=0 / bluray_compat=0 / constrained_intra=0 / bframes=3 / b_pyramid=2 / b_adapt=1 / b_bias=0 / direct=1 / weightb=1 / open_gop=0 / weightp=2 / keyint=240 / keyint_min=24 / scenecut=40 / intra_refresh=0 / rc_lookahead=40 / rc=2pass / mbtree=1 / bitrate=9225 / ratetol=1.0 / qcomp=0.60 / qpmin=0 / qpmax=69 / qpstep=4 / cplxblur=20.0 / qblur=0.5 / ip_ratio=1.40 / aq=1:1.00
Language                                 : English
Default                                  : Yes
Forced                                   : No

Audio #1
ID                                       : 2
Format                                   : AC-3
Format/Info                              : Audio Coding 3
Mode extension                           : CM (complete main)
Format settings, Endianness              : Big
Codec ID                                 : A_AC3
Duration                                 : 1h 56mn
Bit rate mode                            : Constant
Bit rate                                 : 448 Kbps
Channel count                            : 6 channels
Channel positions                        : Front: L C R, Side: L R, LFE
Sampling rate                            : 48.0 KHz
Bit depth                                : 16 bits
Compression mode                         : Lossy
Stream size                              : 373 MiB (4%)
Title                                    : 5.1 @ 448 kbps - професійний дубльований
Language                                 : Ukrainian
Default                                  : Yes
Forced                                   : No

Audio #2
ID                                       : 3
Format                                   :
Format/Info                              : Digital Theater Systems
Mode                                     : 16
Format settings, Endianness              : Big
Codec ID                                 : A_DTS
Duration                                 : 1h 56mn
Bit rate mode                            : Constant
Bit rate                                 : 1 509 Kbps
Channel count                            : 6 channels
Channel positions                        : Front: L C R, Side: L R, LFE
Sampling rate                            : 48.0 KHz
Bit depth                                : 24 bits
Compression mode                         : Lossy
Delay relative to video                  : 22ms
Stream size                              : 1.23 GiB (13%)
Title                                    : 5.1 @ 1536 kbps
Language                                 : English
Default                                  : No
Forced                                   : No

Text
ID                                       : 4
Format                                   : UTF-8
Codec ID                                 : S_TEXT/UTF8
Codec ID/Info                            : UTF-8 Plain Text
Title                                    : Full
Language                                 : English
Default                                  : No
Forced                                   : No

Menu
00:00:00.000                             : :Chapter 1
00:05:03.136                             : :Chapter 2
00:13:04.408                             : :Chapter 3
00:21:29.121                             : :Chapter 4
00:29:15.837                             : :Chapter 5
00:34:19.098                             : :Chapter 6
00:44:11.106                             : :Chapter 7
00:49:54.616                             : :Chapter 8
00:56:02.317                             : :Chapter 9
01:03:24.967                             : :Chapter 10
01:08:33.025                             : :Chapter 11
01:16:15.654                             : :Chapter 12
01:24:45.997                             : :Chapter 13
01:31:30.776                             : :Chapter 14
01:39:27.294                             : :Chapter 15
01:46:09.863                             : :Chapter 16
Офіційний трейлер
Скріншоти:




Світова прем'єра: 8 лютого 2011
Прем'єра в Україні: 31 березня 2011

Бютжет: $80,000,000
За перший вікенд: $30,514,732
Всьго зібрав: $103,028,109


 Трекер:    Зареєстрований   

Завантажити / скачати фільм українською



відео для новачків



 Зареєстрований:   2013-12-21 14:06
 Розмір:   9.1 GB 
 Оцінка фільму:   8.8/10 (Голосів: 11)
   
Інші релізи
leroykendall 
Модератор HD


З нами з: 03.01.11
Востаннє: 20.11.16
Повідомлень: 749

2013-12-21 14:11  

Увага!!! Торент оновлено.
Виправлено прикру помилку зі звуоковою доріжкою.
Вибачаюсь за незручності.
21.12.2013

Ваш часовий пояс: GMT + 2 Години

Нова тема   Відповісти