Завантажити та скачати торренти українською


Хлопчики повертаються / The Boys Are Back (2009) 720p Ukr/Eng | Sub Eng

Нові коментарі

Нова тема   Відповісти
Автор Повідомлення
leroykendall 
Модератор HD


З нами з: 03.01.11
Востаннє: 20.11.16
Повідомлень: 749

2013-12-18 01:01  
Хлопчики повертаються / The Boys Are Back (2009) 720p Ukr/Eng | Sub Eng



«Growing up can be the adventure of a lifetime»


Жанр: драма
Країна: Великобританія, Австралія






Кінокомпанія: Australian Film Finance Corporation (AFFC) Southern Light Films Tiger Aspect Productions
Режисер: Скотт Хікс (Scott Hicks)
Актори: Клайв Овен (Clive Owen), Лора Фрейзер (Laura Fraser), Емма Бут (Emma Booth), Джордж Маккей (George MacKay), Емма Ланг (Emma Lung), Джулія Блейк (Julia Blake), Стівен Робертсон (Steven Robertson), Наташа Літтл (Natasha Little), Ерік Томсон (Erik Thomson), Кріс Хейвуд (Chris Haywood), Адам Морган (Adam Morgan), Томас Бастоу (Tommy Bastow)

Сюжет:
Ця історія сталася в Південній Австралії. Після смерті дружини спортивний репортер Джой Варрі вирішує взяти на себе повну відповідальність за виховання їх шестирічного сина, всупереч намірам тещі. У той же час з Англії приїжджає його старший син від першого шлюбу. Тепер Джою доведеться заново дізнаватися своїх дітей і вчитися бути батьком, а хлопцям доведеться приймати важливі рішення в їх житті. Щоб бути разом.


Тривалість: 01:43:55
Якість: 720p
Відео:
кодек:
розмір кадру: 1280 х 720
бітрейт: 4500 кб/с

Аудіо # 1:
мова: українська
переклад: багатоголосий закадровий
кодек: 2.0
бітрейт: 192 кб/с
Інформація про озвучення
Ролі озвучили: Клайв Овен (Clive Owen) - Володимир Терещук, Дмитро Терещук? і один чи два жіночих
Аудіо # 2:
мова: англійська
переклад: оригінал
кодек: 5.1
бітрейт: 1536 кб/с

Джерело озвучення:


Субтитри:
мова: англійська
тип: програмні (м'які)
формат: *.srt
MediaInfo
Код:
General
Unique ID                                : 251638396517544372782205338150448046476 (0xBD4FCAD43E3C0535A1C470343842A18C)
Complete name                            : V:\The Boys Are Back (2009) [Ukr, Eng] 720p [Hurtom] by leroykendall.mkv
Format                                   : Matroska
Format version                           : Version 4 / Version 2
File size                                : 4.50 GiB
Duration                                 : 1h 43mn
Overall bit rate                         : 6 203 Kbps
Movie name                               : The Boys Are Back (2009) [Ukr, Eng] 720p [Hurtom] by leroykendall
Encoded date                             : UTC 2013-12-17 21:33:49
Writing application                      : mkvmerge v6.2.0 ('Promised Land') built on Apr 28 2013 12:22:01
Writing library                          : libebml v1.3.0 + libmatroska v1.4.0

Video
ID                                       : 1
Format                                   : AVC
Format/Info                              : Advanced Video Codec
Format profile                           : [email protected]
Format settings, CABAC                   : Yes
Format settings, ReFrames                : 5 frames
Codec ID                                 : V_MPEG4/ISO/AVC
Duration                                 : 1h 43mn
Bit rate                                 : 4 500 Kbps
Width                                    : 1 280 pixels
Height                                   : 720 pixels
Display aspect ratio                     : 16:9
Frame rate mode                          : Constant
Frame rate                               : 24.000 fps
Color space                              : YUV
Chroma subsampling                       : 4:2:0
Bit depth                                : 8 bits
Scan type                                : Progressive
Bits/(Pixel*Frame)                       : 0.203
Stream size                              : 3.18 GiB (71%)
Title                                    : The Boys Are Back (2009) 720p
Writing library                          : core 94 r1564 a927654
Encoding settings                        : cabac=1 / ref=5 / deblock=1:0:0 / analyse=0x3:0x133 / me=umh / subme=9 / psy=1 / psy_rd=1.00:0.00 / mixed_ref=1 / me_range=16 / chroma_me=1 / trellis=1 / 8x8dct=1 / cqm=0 / deadzone=21,11 / fast_pskip=0 / chroma_qp_offset=-2 / threads=12 / sliced_threads=0 / nr=0 / decimate=1 / interlaced=0 / constrained_intra=0 / bframes=3 / b_pyramid=2 / b_adapt=1 / b_bias=0 / direct=1 / wpredb=1 / wpredp=2 / keyint=250 / keyint_min=25 / scenecut=40 / intra_refresh=0 / rc_lookahead=40 / rc=2pass / mbtree=1 / bitrate=4500 / ratetol=1.0 / qcomp=0.60 / qpmin=10 / qpmax=51 / qpstep=4 / cplxblur=20.0 / qblur=0.5 / ip_ratio=1.40 / aq=1:1.00
Language                                 : English
Default                                  : No
Forced                                   : No

Audio #1
ID                                       : 2
Format                                   : AC-3
Format/Info                              : Audio Coding 3
Mode extension                           : CM (complete main)
Format settings, Endianness              : Big
Codec ID                                 : A_AC3
Duration                                 : 1h 43mn
Bit rate mode                            : Constant
Bit rate                                 : 192 Kbps
Channel count                            : 2 channels
Channel positions                        : Front: L R
Sampling rate                            : 44.1 KHz
Bit depth                                : 16 bits
Compression mode                         : Lossy
Stream size                              : 143 MiB (3%)
Title                                    : 2.0 @ 192 kbps - багатоголосий закадровий K1
Language                                 : Ukrainian
Default                                  : No
Forced                                   : No

Audio #2
ID                                       : 3
Format                                   :
Format/Info                              : Digital Theater Systems
Mode                                     : 16
Format settings, Endianness              : Big
Codec ID                                 : A_DTS
Duration                                 : 1h 43mn
Bit rate mode                            : Constant
Bit rate                                 : 1 509 Kbps
Channel count                            : 6 channels
Channel positions                        : Front: L C R, Side: L R, LFE
Sampling rate                            : 48.0 KHz
Bit depth                                : 16 bits
Compression mode                         : Lossy
Stream size                              : 1.10 GiB (24%)
Title                                    : 5.1 @ 1536 kbps
Language                                 : English
Default                                  : No
Forced                                   : No

Text
ID                                       : 4
Format                                   : UTF-8
Codec ID                                 : S_TEXT/UTF8
Codec ID/Info                            : UTF-8 Plain Text
Language                                 : English
Default                                  : No
Forced                                   : No


Скріншоти:





Подяки
MAKAPOHHIK за запис звуку
bilenkuyboy за українізацію постера
igorgladunyak за еталонний реліз



Джерело:


 Трекер:    Зареєстрований   

Завантажити / скачати фільм українською



відео для новачків



 Зареєстрований:   2013-12-18 01:01
 Розмір:   4.5 GB 
 Оцінка фільму:   9.8/10 (Голосів: 4)
   
Інші релізи
   Хлопчики повертаються / The Boys Are Back (2009) braveboy  3 / 0   1.66 GB   2011-09-05 22:20 
TPEM 
Відео Гуртом - фільмокрай
Відео Гуртом - фільмокрай


З нами з: 30.01.09
Востаннє: 08.12.16
Повідомлень: 398

2013-12-20 00:47  
Добрий фільм
Ваш часовий пояс: GMT + 2 Години

Нова тема   Відповісти