Завантажити та скачати торренти українською


Pianoбой (Пианобой) | Дискографія [2 альбоми] (2012-2013) [FLAC] | Rock / Piano Rock

Нові коментарі

Нова тема   Відповісти
Автор Повідомлення
muhomor 
VIP


З нами з: 04.12.11
Востаннє: 29.11.16
Повідомлень: 297

2013-12-16 13:11  
Pianoбой (Пианобой) | Дискографія [2 альбоми] (2012-2013) [FLAC] | Rock / Piano Rock

Pianoбой (Пианобой) | Дискографія [2 альбоми] (2012-2013) [FLAC] | Rock / Piano Rock


Стиль: Rock / Piano Rock
Країна, місто: Україна, Київ
Сайти: Офіційний сайт
Видавець: Lavina Music; Музыка Для Масс / MOON Records
Виконавці:
Дмитро Шуров – музика, лірика, голос, piano, Hammond, концепція
Ольга Шурова – бек-вокал, nord electro
Микола Кістеньов – бас-гітара
Ліда Тутуола – бек-вокал (перший альбом)
Максим Малишев – барабани (перший альбом)
Андрій Надольський – барабани (другий альбом: 8, 11)
Лев Шуров – вокал (другий альбом: 1, 4)
Антон Бурико – труба, флюгельхорн (другий альбом: 7).

Альбоми:
    2012. «Простые Вещи»


    Pianoбой (Пианобой) | Дискографія [2 альбоми] (2012-2013) [FLAC] | Rock / Piano Rock

    01. Прощай Навсегда
    02. Простые Вещи
    03. Эстафета
    04. Что, Если...
    05. Ночная
    06. Этажи (feat. Бумбокс)
    07. Ведьма!
    08. 1 – 1
    09. Уикенд
    10. Хромосома
    11. Спутники
    12. How Does It Feel?
    13. Станция
    Audiochecker

    AUDIOCHECKER v2.0 beta (build 457) - by Dester - [email protected]
    ~~~~~~~~~~~~~~~~~~~~~~~~~~~~~~~~~~

    Started at: вторник, 19. 03. 2013. - 11:00.13
    13 files found

    01 -===- D:\hurtom.com\=Pianoбой - «Простые Вещи» (2012) (FLAC)\01 Pianoбой Прощай Навсегда.flac
    Extracted successfully
    Conclusion: this track is CDDA with probability 100%
    Tempfile successfully deleted.

    02 -===- D:\hurtom.com\=Pianoбой - «Простые Вещи» (2012) (FLAC)\02 Pianoбой Простые Вещи.flac
    Extracted successfully
    Conclusion: this track is CDDA with probability 100%
    Tempfile successfully deleted.

    03 -===- D:\hurtom.com\=Pianoбой - «Простые Вещи» (2012) (FLAC)\03 Pianoбой Эстафета.flac
    Extracted successfully
    Conclusion: this track is CDDA with probability 100%
    Tempfile successfully deleted.

    04 -===- D:\hurtom.com\=Pianoбой - «Простые Вещи» (2012) (FLAC)\04 Pianoбой Что, Если....flac
    Extracted successfully
    Conclusion: this track is CDDA with probability 100%
    Tempfile successfully deleted.

    05 -===- D:\hurtom.com\=Pianoбой - «Простые Вещи» (2012) (FLAC)\05 Pianoбой Ночная.flac
    Extracted successfully
    Conclusion: this track is CDDA with probability 100%
    Tempfile successfully deleted.

    06 -===- D:\hurtom.com\=Pianoбой - «Простые Вещи» (2012) (FLAC)\06 Pianoбой Этажи (feat. Бумбокс).flac
    Extracted successfully
    Conclusion: this track is CDDA with probability 100%
    Tempfile successfully deleted.

    07 -===- D:\hurtom.com\=Pianoбой - «Простые Вещи» (2012) (FLAC)\07 Pianoбой Ведьма!.flac
    Extracted successfully
    Conclusion: this track is CDDA with probability 100%
    Tempfile successfully deleted.

    08 -===- D:\hurtom.com\=Pianoбой - «Простые Вещи» (2012) (FLAC)\08 Pianoбой 1 – 1.flac
    Extracted successfully
    Conclusion: this track is CDDA with probability 100%
    Tempfile successfully deleted.

    09 -===- D:\hurtom.com\=Pianoбой - «Простые Вещи» (2012) (FLAC)\09 Pianoбой Уикенд.flac
    Extracted successfully
    Conclusion: this track is CDDA with probability 100%
    Tempfile successfully deleted.

    10 -===- D:\hurtom.com\=Pianoбой - «Простые Вещи» (2012) (FLAC)\10 Pianoбой Хромосома.flac
    Extracted successfully
    Conclusion: this track is CDDA with probability 100%
    Tempfile successfully deleted.

    11 -===- D:\hurtom.com\=Pianoбой - «Простые Вещи» (2012) (FLAC)\11 Pianoбой Спутники.flac
    Extracted successfully
    Conclusion: this track is CDDA with probability 100%
    Tempfile successfully deleted.

    12 -===- D:\hurtom.com\=Pianoбой - «Простые Вещи» (2012) (FLAC)\12 Pianoбой How Does It Feel.flac
    Extracted successfully
    Conclusion: this track is CDDA with probability 100%
    Tempfile successfully deleted.

    13 -===- D:\hurtom.com\=Pianoбой - «Простые Вещи» (2012) (FLAC)\13 Pianoбой Станция.flac
    Extracted successfully
    Conclusion: this track is CDDA with probability 100%
    Tempfile successfully deleted.

    Finished at: вторник, 19. 03. 2013. - 11:06.45 (operation time: 0:06.31)
    Log

    Exact Audio Copy V1.0 beta 3 from 29. August 2011

    Отчёт EAC об извлечении, выполненном 19. марта 2013, 10:57

    Pianoбой / Простые Вещи

    Дисковод: ASUS DRW-2014S1T Adapter: 2 ID: 8

    Режим чтения : Достоверность
    Использование точного потока : Да
    Отключение кэша аудио : Да
    Использование указателей C2 : Нет

    Коррекция смещения при чтении : 6
    Способность читать области Lead-in и Lead-out : Нет
    Заполнение пропущенных сэмплов тишиной : Да
    Удаление блоков с тишиной в начале и конце : Нет
    При вычислениях CRC использовались нулевые сэмплы : Да
    Интерфейс : Встроенный Win32-интерфейс для Win NT/2000
    Обработка зазоров : Добавлено к предыдущему треку

    Выходной формат : Пользовательский кодировщик
    Выбранный битрейт : 128 kBit/s
    Качество : Высокий
    Добавление ID3-тега : Нет
    Утилита сжатия : C:\Program Files\Exact Audio Copy\Flac\flac.exe
    Дополнительные параметры : -V -8 -T "Genre=%genre%" -T "Artist=%artist%" -T "Title=%title%" -T "Album=%albumtitle%" -T "Date=%year%" -T "Tracknumber=%tracknr%" -T "Comment=%comment%" %source%

    TOC извлечённого CD

    Трек | Старт | Длительность | Начальный сектор | Конечный сектор
    ---------------------------------------------------------------------
    1 | 0:00.00 | 4:04.03 | 0 | 18302
    2 | 4:04.03 | 3:31.62 | 18303 | 34189
    3 | 7:35.65 | 2:59.01 | 34190 | 47615
    4 | 10:34.66 | 4:26.40 | 47616 | 67605
    5 | 15:01.31 | 6:34.26 | 67606 | 97181
    6 | 21:35.57 | 4:18.03 | 97182 | 116534
    7 | 25:53.60 | 4:34.00 | 116535 | 137084
    8 | 30:27.60 | 3:38.25 | 137085 | 153459
    9 | 34:06.10 | 3:45.27 | 153460 | 170361
    10 | 37:51.37 | 4:17.45 | 170362 | 189681
    11 | 42:09.07 | 3:30.09 | 189682 | 205440
    12 | 45:39.16 | 2:54.51 | 205441 | 218541
    13 | 48:33.67 | 4:21.74 | 218542 | 238190

    Трек 1

    Имя файла D:\Documents and Settings\user\Рабочий стол\«»—0–\01 Pianoбой Прощай Навсегда.wav

    Длина предзазора 0:00:02.00

    Пиковый уровень 98.9 %
    Скорость извлечения 4.3 X
    Качество трека 99.9 %
    CRC теста DDE8A8D2
    CRC копии DDE8A8D2
    Копирование... OK

    Трек 2

    Имя файла D:\Documents and Settings\user\Рабочий стол\«»—0–\02 Pianoбой Простые Вещи.wav

    Пиковый уровень 100.0 %
    Скорость извлечения 4.6 X
    Качество трека 99.9 %
    CRC теста 2971A9F4
    CRC копии 2971A9F4
    Копирование... OK

    Трек 3

    Имя файла D:\Documents and Settings\user\Рабочий стол\«»—0–\03 Pianoбой Эстафета.wav

    Пиковый уровень 98.9 %
    Скорость извлечения 5.7 X
    Качество трека 100.0 %
    CRC теста ADB48155
    CRC копии ADB48155
    Копирование... OK

    Трек 4

    Имя файла D:\Documents and Settings\user\Рабочий стол\«»—0–\04 Pianoбой Что, Если....wav

    Пиковый уровень 98.9 %
    Скорость извлечения 6.3 X
    Качество трека 100.0 %
    CRC теста 09DEC5A4
    CRC копии 09DEC5A4
    Копирование... OK

    Трек 5

    Имя файла D:\Documents and Settings\user\Рабочий стол\«»—0–\05 Pianoбой Ночная.wav

    Пиковый уровень 98.8 %
    Скорость извлечения 6.9 X
    Качество трека 100.0 %
    CRC теста 751D3B9D
    CRC копии 751D3B9D
    Копирование... OK

    Трек 6

    Имя файла D:\Documents and Settings\user\Рабочий стол\«»—0–\06 Pianoбой Этажи (feat. Бумбокс).wav

    Пиковый уровень 95.5 %
    Скорость извлечения 6.5 X
    Качество трека 100.0 %
    CRC теста CC649784
    CRC копии CC649784
    Копирование... OK

    Трек 7

    Имя файла D:\Documents and Settings\user\Рабочий стол\«»—0–\07 Pianoбой Ведьма!.wav

    Пиковый уровень 95.5 %
    Скорость извлечения 7.8 X
    Качество трека 100.0 %
    CRC теста 12899B1A
    CRC копии 12899B1A
    Копирование... OK

    Трек 8

    Имя файла D:\Documents and Settings\user\Рабочий стол\«»—0–\08 Pianoбой 1 – 1.wav

    Пиковый уровень 98.9 %
    Скорость извлечения 7.0 X
    Качество трека 100.0 %
    CRC теста F387DCAC
    CRC копии F387DCAC
    Копирование... OK

    Трек 9

    Имя файла D:\Documents and Settings\user\Рабочий стол\«»—0–\09 Pianoбой Уикенд.wav

    Пиковый уровень 100.0 %
    Скорость извлечения 6.8 X
    Качество трека 100.0 %
    CRC теста 9DD8AE73
    CRC копии 9DD8AE73
    Копирование... OK

    Трек 10

    Имя файла D:\Documents and Settings\user\Рабочий стол\«»—0–\10 Pianoбой Хромосома.wav

    Пиковый уровень 98.9 %
    Скорость извлечения 7.3 X
    Качество трека 99.9 %
    CRC теста 62915AF5
    CRC копии 62915AF5
    Копирование... OK

    Трек 11

    Имя файла D:\Documents and Settings\user\Рабочий стол\«»—0–\11 Pianoбой Спутники.wav

    Пиковый уровень 95.5 %
    Скорость извлечения 7.1 X
    Качество трека 99.9 %
    CRC теста 6A57E565
    CRC копии 6A57E565
    Копирование... OK

    Трек 12

    Имя файла D:\Documents and Settings\user\Рабочий стол\«»—0–\12 Pianoбой How Does It Feel.wav

    Пиковый уровень 98.9 %
    Скорость извлечения 8.4 X
    Качество трека 100.0 %
    CRC теста D4E17D2D
    CRC копии D4E17D2D
    Копирование... OK

    Трек 13

    Имя файла D:\Documents and Settings\user\Рабочий стол\«»—0–\13 Pianoбой Станция.wav

    Пиковый уровень 98.9 %
    Скорость извлечения 8.6 X
    Качество трека 100.0 %
    CRC теста 6C846618
    CRC копии 6C846618
    Копирование... OK

    Ошибок не произошло

    Конец отчёта

    ==== Контрольная сумма отчёта 004BE9CC66FB305CCB2E348D1BA96EF8569CD1C260ECDBF6449416C31472725C ====
    Тривалість: 00:52:52
    2013. «Не Прекращай Мечтать»


    Pianoбой (Пианобой) | Дискографія [2 альбоми] (2012-2013) [FLAC] | Rock / Piano Rock

    01. Родина
    02. Света
    03. Бандерлоги
    04. Зомби
    05. Таблетка
    06. Нет!
    07. Ихтиандр
    08. Одна
    09. Ну Как Дела?
    10. Магия
    11. Выходной
    12. Письмо
    13. Поезд
    Audiochecker

    AUDIOCHECKER v2.0 beta (build 457) - by Dester - [email protected]
    ~~~~~~~~~~~~~~~~~~~~~~~~~~~~~~~~~~

    Started at: четверг, 12. 12. 2013. - 17:56.46
    13 files found

    01 -===- D:\hurtom.com\Pianoбой - «Не Прекращай Мечтать» (2013) (FLAC)\01 Pianoбой Родина.flac
    Extracted successfully
    Conclusion: this track is CDDA with probability 100%
    Tempfile successfully deleted.

    02 -===- D:\hurtom.com\Pianoбой - «Не Прекращай Мечтать» (2013) (FLAC)\02 Pianoбой Света.flac
    Extracted successfully
    Conclusion: this track is CDDA with probability 100%
    Tempfile successfully deleted.

    03 -===- D:\hurtom.com\Pianoбой - «Не Прекращай Мечтать» (2013) (FLAC)\03 Pianoбой Бандерлоги.flac
    Extracted successfully
    Conclusion: this track is CDDA with probability 100%
    Tempfile successfully deleted.

    04 -===- D:\hurtom.com\Pianoбой - «Не Прекращай Мечтать» (2013) (FLAC)\04 Pianoбой Зомби.flac
    Extracted successfully
    Conclusion: this track is CDDA with probability 100%
    Tempfile successfully deleted.

    05 -===- D:\hurtom.com\Pianoбой - «Не Прекращай Мечтать» (2013) (FLAC)\05 Pianoбой Таблетка.flac
    Extracted successfully
    Conclusion: this track is CDDA with probability 100%
    Tempfile successfully deleted.

    06 -===- D:\hurtom.com\Pianoбой - «Не Прекращай Мечтать» (2013) (FLAC)\06 Pianoбой Нет!.flac
    Extracted successfully
    Conclusion: this track is CDDA with probability 100%
    Tempfile successfully deleted.

    07 -===- D:\hurtom.com\Pianoбой - «Не Прекращай Мечтать» (2013) (FLAC)\07 Pianoбой Ихтиандр.flac
    Extracted successfully
    Conclusion: this track is CDDA with probability 99%
    Tempfile successfully deleted.

    08 -===- D:\hurtom.com\Pianoбой - «Не Прекращай Мечтать» (2013) (FLAC)\08 Pianoбой Одна.flac
    Extracted successfully
    Conclusion: this track is CDDA with probability 100%
    Tempfile successfully deleted.

    09 -===- D:\hurtom.com\Pianoбой - «Не Прекращай Мечтать» (2013) (FLAC)\09 Pianoбой Ну Как Дела.flac
    Extracted successfully
    Conclusion: this track is CDDA with probability 92%
    Tempfile successfully deleted.

    10 -===- D:\hurtom.com\Pianoбой - «Не Прекращай Мечтать» (2013) (FLAC)\10 Pianoбой Магия.flac
    Extracted successfully
    Conclusion: this track is CDDA with probability 99%
    Tempfile successfully deleted.

    11 -===- D:\hurtom.com\Pianoбой - «Не Прекращай Мечтать» (2013) (FLAC)\11 Pianoбой Выходной.flac
    Extracted successfully
    Conclusion: this track is CDDA with probability 100%
    Tempfile successfully deleted.

    12 -===- D:\hurtom.com\Pianoбой - «Не Прекращай Мечтать» (2013) (FLAC)\12 Pianoбой Письмо.flac
    Extracted successfully
    Conclusion: this track is CDDA with probability 100%
    Tempfile successfully deleted.

    13 -===- D:\hurtom.com\Pianoбой - «Не Прекращай Мечтать» (2013) (FLAC)\13 Pianoбой Поезд.flac
    Extracted successfully
    Conclusion: this track is CDDA with probability 100%
    Tempfile successfully deleted.

    Finished at: четверг, 12. 12. 2013. - 18:02.09 (operation time: 0:05.22)
    Log

    Exact Audio Copy V1.0 beta 3 from 29. August 2011

    Отчёт EAC об извлечении, выполненном 12. декабря 2013, 17:51

    Pianoбой / Не Прекращай Мечтать

    Дисковод: ASUS DRW-2014S1T Adapter: 2 ID: 8

    Режим чтения : Достоверность
    Использование точного потока : Да
    Отключение кэша аудио : Да
    Использование указателей C2 : Нет

    Коррекция смещения при чтении : 6
    Способность читать области Lead-in и Lead-out : Нет
    Заполнение пропущенных сэмплов тишиной : Да
    Удаление блоков с тишиной в начале и конце : Нет
    При вычислениях CRC использовались нулевые сэмплы : Да
    Интерфейс : Встроенный Win32-интерфейс для Win NT/2000
    Обработка зазоров : Добавлено к предыдущему треку

    Выходной формат : Пользовательский кодировщик
    Выбранный битрейт : 128 kBit/s
    Качество : Высокий
    Добавление ID3-тега : Нет
    Утилита сжатия : C:\Program Files\Exact Audio Copy\Flac\flac.exe
    Дополнительные параметры : -V -8 -T "Genre=%genre%" -T "Artist=%artist%" -T "Title=%title%" -T "Album=%albumtitle%" -T "Date=%year%" -T "Tracknumber=%tracknr%" -T "Comment=%comment%" %source%

    TOC извлечённого CD

    Трек | Старт | Длительность | Начальный сектор | Конечный сектор
    ---------------------------------------------------------------------
    1 | 0:00.00 | 3:56.33 | 0 | 17732
    2 | 3:56.33 | 3:36.57 | 17733 | 33989
    3 | 7:33.15 | 3:45.09 | 33990 | 50873
    4 | 11:18.24 | 5:20.69 | 50874 | 74942
    5 | 16:39.18 | 3:41.19 | 74943 | 91536
    6 | 20:20.37 | 3:09.31 | 91537 | 105742
    7 | 23:29.68 | 4:29.12 | 105743 | 125929
    8 | 27:59.05 | 3:27.24 | 125930 | 141478
    9 | 31:26.29 | 3:32.18 | 141479 | 157396
    10 | 34:58.47 | 4:43.72 | 157397 | 178693
    11 | 39:42.44 | 4:40.18 | 178694 | 199711
    12 | 44:22.62 | 2:05.24 | 199712 | 209110
    13 | 46:28.11 | 6:38.29 | 209111 | 238989

    Трек 1

    Имя файла D:\Documents and Settings\user\Рабочий стол\«»—0–\01 Pianoбой Родина.wav

    Длина предзазора 0:00:02.00

    Пиковый уровень 97.7 %
    Скорость извлечения 5.4 X
    Качество трека 100.0 %
    CRC копии E252810C
    Копирование... OK

    Трек 2

    Имя файла D:\Documents and Settings\user\Рабочий стол\«»—0–\02 Pianoбой Света.wav

    Пиковый уровень 97.7 %
    Скорость извлечения 5.5 X
    Качество трека 99.9 %
    CRC копии A88BCB9F
    Копирование... OK

    Трек 3

    Имя файла D:\Documents and Settings\user\Рабочий стол\«»—0–\03 Pianoбой Бандерлоги.wav

    Пиковый уровень 94.3 %
    Скорость извлечения 6.0 X
    Качество трека 99.9 %
    CRC копии 2B1F181B
    Копирование... OK

    Трек 4

    Имя файла D:\Documents and Settings\user\Рабочий стол\«»—0–\04 Pianoбой Зомби.wav

    Пиковый уровень 97.6 %
    Скорость извлечения 7.7 X
    Качество трека 100.0 %
    CRC копии 5C0AD0AB
    Копирование... OK

    Трек 5

    Имя файла D:\Documents and Settings\user\Рабочий стол\«»—0–\05 Pianoбой Таблетка.wav

    Пиковый уровень 97.7 %
    Скорость извлечения 7.8 X
    Качество трека 100.0 %
    CRC копии A0D6858E
    Копирование... OK

    Трек 6

    Имя файла D:\Documents and Settings\user\Рабочий стол\«»—0–\06 Pianoбой Нет!.wav

    Пиковый уровень 98.7 %
    Скорость извлечения 7.9 X
    Качество трека 100.0 %
    CRC копии 3A060623
    Копирование... OK

    Трек 7

    Имя файла D:\Documents and Settings\user\Рабочий стол\«»—0–\07 Pianoбой Ихтиандр.wav

    Пиковый уровень 98.7 %
    Скорость извлечения 8.7 X
    Качество трека 100.0 %
    CRC копии 9E142E32
    Копирование... OK

    Трек 8

    Имя файла D:\Documents and Settings\user\Рабочий стол\«»—0–\08 Pianoбой Одна.wav

    Пиковый уровень 97.6 %
    Скорость извлечения 8.7 X
    Качество трека 100.0 %
    CRC копии 9BB22A36
    Копирование... OK

    Трек 9

    Имя файла D:\Documents and Settings\user\Рабочий стол\«»—0–\09 Pianoбой Ну Как Дела.wav

    Пиковый уровень 97.8 %
    Скорость извлечения 9.0 X
    Качество трека 100.0 %
    CRC копии FC632D91
    Копирование... OK

    Трек 10

    Имя файла D:\Documents and Settings\user\Рабочий стол\«»—0–\10 Pianoбой Магия.wav

    Пиковый уровень 98.7 %
    Скорость извлечения 9.8 X
    Качество трека 100.0 %
    CRC копии F5B5A431
    Копирование... OK

    Трек 11

    Имя файла D:\Documents and Settings\user\Рабочий стол\«»—0–\11 Pianoбой Выходной.wav

    Пиковый уровень 98.7 %
    Скорость извлечения 9.9 X
    Качество трека 100.0 %
    CRC копии 634D54F3
    Копирование... OK

    Трек 12

    Имя файла D:\Documents and Settings\user\Рабочий стол\«»—0–\12 Pianoбой Письмо.wav

    Пиковый уровень 97.7 %
    Скорость извлечения 9.0 X
    Качество трека 100.0 %
    CRC копии 57E3F5E2
    Копирование... OK

    Трек 13

    Имя файла D:\Documents and Settings\user\Рабочий стол\«»—0–\13 Pianoбой Поезд.wav

    Пиковый уровень 97.7 %
    Скорость извлечения 9.7 X
    Качество трека 99.9 %
    CRC копии DCDF7776
    Копирование... OK

    Ошибок не произошло

    Конец отчёта

    ==== Контрольная сумма отчёта 431A44F5AA8F2B707925DDD156A744735C00ED06FBD43A580D23B5CD18800B4B ====
    Тривалість: 00:53:02

Тривалість: 01:45:54
Мова: російська
Аудіо-кодек: FLAC
Бітрейт: 701-1124 кб/с
Джерело: ріп зроблено з ліцензійних компакт-дисків із власної фонотеки
Додаткова інформація:


Якщо Ви справді бажаєте підтримати українське - після прослуховування, якщо музика вам сподобалась, придбайте ліцензійний диск. Підтримаймо вітчизняних виконавців!


Золотий реліз (завантажене не впливає на рейтинг)
 Трекер:    Зареєстрований   

Завантажити / скачати українську музику



відео для новачків



 Зареєстрований:   2013-12-16 13:11
 Розмір:   731 MB 
 Оцінка музики:   6.8/10 (Голосів: 19)
   
vamp69 
Поважний учасник


З нами з: 06.07.09
Востаннє: 08.12.16
Повідомлень: 173

2015-04-25 11:22  
Питання для тих у кого є диск 2012. «Простые Вещи». Чи є там підпис музиканта?
Купив диск і там підпис. Чи вони всі підписані?

Ваш часовий пояс: GMT + 2 Години

Нова тема   Відповісти