Завантажити та скачати торренти українською


Інеса Братущик, Орест Хома - Три дороги (1996) [FLAC] | Pop

Нові коментарі

Нова тема   Відповісти
Останній раз роздавалося biloussaha (2016-12-04)
Автор Повідомлення
ssTAss 
Модератор музики


З нами з: 05.07.08
Востаннє: 06.12.16
Повідомлень: 10946

2013-12-15 16:54  
Інеса Братущик, Орест Хома - Три дороги (1996) [FLAC] | Pop

Інеса Братущик, Орест Хома - Три дороги (1996) [FLAC] | Pop


Стиль: Pop
Країна, місто: Україна, Львів
Видавець: NAC
Виконавці:
Орест Хома
Інеса Братущик
Пісні:
    01 - Три дороги
    02 - Бiлий рояль
    03 - Теплий блюз
    04 - Дай менi тепла
    05 - Бiлий снiг
    06 - Нагадай
    07 - Музика моя
    08 - Не любиш
    09 - Полон
    10 - Вiнок
    11 - Слова
    12 - Даруй менi радiсть
    13 - Хай щастить
    14 - Очi синi
log
Exact Audio Copy V1.0 beta 1 from 15. November 2010

EAC extraction logfile from 18. February 2013, 13:44

Iнеса Братущик та Орест Хома / Три дороги

Used drive : Optiarc DVD RW AD-7200A Adapter: 0 ID: 0

Read mode : Secure
Utilize accurate stream : Yes
Defeat audio cache : Yes
Make use of C2 pointers : No

Read offset correction : 48
Overread into Lead-In and Lead-Out : No
Fill up missing offset samples with silence : Yes
Delete leading and trailing silent blocks : No
Null samples used in CRC calculations : Yes
Used interface : Native Win32 interface for Win NT & 2000
Gap handling : Appended to previous track

Used output format : User Defined Encoder
Selected bitrate : 768 kBit/s
Quality : High
Add ID3 tag : No
Command line compressor : C:\Program Files\Exact Audio Copy\Flac\flac.exe
Additional command line options : -8 -V -T "ARTIST=%a" -T "TITLE=%t" -T "ALBUM=%g" -T "DATE=%y" -T "TRACKNUMBER=%n" -T "TOTALTRACKS=%x" -T "GENRE=%m" -T "ALBUMARTIST=%v" -T "ALBUM ARTIST=%v" -T "COMMENT=EAC Secure Mode, Test & Copy, AccurateRip, FLAC -8" %s

TOC of the extracted CD

Track | Start | Length | Start sector | End sector
---------------------------------------------------------
1 | 0:00.25 | 5:00.63 | 25 | 22587
2 | 5:01.13 | 4:05.30 | 22588 | 40992
3 | 9:06.43 | 2:16.05 | 40993 | 51197
4 | 11:22.48 | 4:36.42 | 51198 | 71939
5 | 15:59.15 | 3:54.00 | 71940 | 89489
6 | 19:53.15 | 3:47.63 | 89490 | 106577
7 | 23:41.03 | 6:41.05 | 106578 | 136657
8 | 30:22.08 | 4:48.67 | 136658 | 158324
9 | 35:11.00 | 5:49.23 | 158325 | 184522
10 | 41:00.23 | 4:40.12 | 184523 | 205534
11 | 45:40.35 | 3:19.33 | 205535 | 220492
12 | 48:59.68 | 3:43.20 | 220493 | 237237
13 | 52:43.13 | 3:38.17 | 237238 | 253604
14 | 56:21.30 | 3:50.20 | 253605 | 270874

Track 1

Filename D:\Iнеса Братущик та Орест Хома - Три дороги (1994) [FLAC]\01 - Три дороги.wav

Pre-gap length 0:00:02.33

Peak level 87.0 %
Extraction speed 2.2 X
Track quality 99.9 %
Test CRC EF010435
Copy CRC EF010435
Track not present in AccurateRip database
Copy OK

Track 2

Filename D:\Iнеса Братущик та Орест Хома - Три дороги (1994) [FLAC]\02 - Бiлий рояль.wav

Pre-gap length 0:00:00.04

Peak level 75.7 %
Extraction speed 2.4 X
Track quality 99.9 %
Test CRC B7BCE052
Copy CRC B7BCE052
Track not present in AccurateRip database
Copy OK

Track 3

Filename D:\Iнеса Братущик та Орест Хома - Три дороги (1994) [FLAC]\03 - Теплий блюз.wav

Pre-gap length 0:00:00.04

Peak level 84.6 %
Extraction speed 2.6 X
Track quality 100.0 %
Test CRC 0E805FF7
Copy CRC 0E805FF7
Track not present in AccurateRip database
Copy OK

Track 4

Filename D:\Iнеса Братущик та Орест Хома - Три дороги (1994) [FLAC]\04 - Дай менi тепла.wav

Pre-gap length 0:00:00.04

Peak level 82.3 %
Extraction speed 3.1 X
Track quality 100.0 %
Test CRC 5F02F6F8
Copy CRC 5F02F6F8
Track not present in AccurateRip database
Copy OK

Track 5

Filename D:\Iнеса Братущик та Орест Хома - Три дороги (1994) [FLAC]\05 - Бiлий снiг.wav

Pre-gap length 0:00:00.06

Peak level 74.3 %
Extraction speed 3.3 X
Track quality 100.0 %
Test CRC 0946E37E
Copy CRC 0946E37E
Track not present in AccurateRip database
Copy OK

Track 6

Filename D:\Iнеса Братущик та Орест Хома - Три дороги (1994) [FLAC]\06 - Нагадай.wav

Pre-gap length 0:00:00.02

Peak level 83.1 %
Extraction speed 3.5 X
Track quality 100.0 %
Test CRC 2160A4D8
Copy CRC 2160A4D8
Track not present in AccurateRip database
Copy OK

Track 7

Filename D:\Iнеса Братущик та Орест Хома - Три дороги (1994) [FLAC]\07 - Музика моя.wav

Pre-gap length 0:00:00.04

Peak level 80.0 %
Extraction speed 4.0 X
Track quality 100.0 %
Test CRC 5851CF2E
Copy CRC 5851CF2E
Track not present in AccurateRip database
Copy OK

Track 8

Filename D:\Iнеса Братущик та Орест Хома - Три дороги (1994) [FLAC]\08 - Не любиш.wav

Pre-gap length 0:00:00.04

Peak level 76.6 %
Extraction speed 3.7 X
Track quality 99.9 %
Test CRC 83F03B4D
Copy CRC 83F03B4D
Track not present in AccurateRip database
Copy OK

Track 9

Filename D:\Iнеса Братущик та Орест Хома - Три дороги (1994) [FLAC]\09 - Полон.wav

Pre-gap length 0:00:00.02

Peak level 86.6 %
Extraction speed 4.0 X
Track quality 99.9 %
Test CRC 7A71AE84
Copy CRC 7A71AE84
Track not present in AccurateRip database
Copy OK

Track 10

Filename D:\Iнеса Братущик та Орест Хома - Три дороги (1994) [FLAC]\10 - Вiнок.wav

Pre-gap length 0:00:00.04

Peak level 79.6 %
Extraction speed 4.4 X
Track quality 100.0 %
Test CRC 2A149839
Copy CRC 2A149839
Track not present in AccurateRip database
Copy OK

Track 11

Filename D:\Iнеса Братущик та Орест Хома - Три дороги (1994) [FLAC]\11 - Слова.wav

Pre-gap length 0:00:00.02

Peak level 79.2 %
Extraction speed 4.4 X
Track quality 100.0 %
Test CRC 00679D7D
Copy CRC 00679D7D
Track not present in AccurateRip database
Copy OK

Track 12

Filename D:\Iнеса Братущик та Орест Хома - Три дороги (1994) [FLAC]\12 - Даруй менi радiсть.wav

Pre-gap length 0:00:00.04

Peak level 73.3 %
Extraction speed 4.7 X
Track quality 100.0 %
Test CRC AB53F8F0
Copy CRC AB53F8F0
Track not present in AccurateRip database
Copy OK

Track 13

Filename D:\Iнеса Братущик та Орест Хома - Три дороги (1994) [FLAC]\13 - Хай щастить.wav

Pre-gap length 0:00:00.04

Peak level 72.9 %
Extraction speed 4.7 X
Track quality 100.0 %
Test CRC CE8D4AB4
Copy CRC CE8D4AB4
Track not present in AccurateRip database
Copy OK

Track 14

Filename D:\Iнеса Братущик та Орест Хома - Три дороги (1994) [FLAC]\14 - Очi синi.wav

Pre-gap length 0:00:00.02

Peak level 74.9 %
Extraction speed 4.9 X
Track quality 100.0 %
Test CRC 5633C65A
Copy CRC 5633C65A
Track not present in AccurateRip database
Copy OK

None of the tracks are present in the AccurateRip database

No errors occurred

End of status report

==== Log checksum 5E421CFA0E2B6AC0007577E53DEC19A84F4C6E777223D3BFF3D37B7C3FE4F570 ====
fooCDtect
fooCDtect - foobar2000 + auCDtect, baralgin.

auCDtect: CD records authenticity detector, version 0.8.2
Copyright (c) 2004 Oleg Berngardt. All rights reserved.
Copyright (c) 2004 Alexander Djourik. All rights reserved.

mode: 0

===========================================
Track: 01 - Три дороги
Quality: CDDA 100%
===========================================
Track: 02 - Бiлий рояль
Quality: CDDA 100%
===========================================
Track: 03 - Теплий блюз
Quality: CDDA 100%
===========================================
Track: 04 - Дай менi тепла
Quality: CDDA 100%
===========================================
Track: 05 - Бiлий снiг
Quality: CDDA 100%
===========================================
Track: 06 - Нагадай
Quality: CDDA 100%
===========================================
Track: 07 - Музика моя
Quality: CDDA 100%
===========================================
Track: 08 - Не любиш
Quality: CDDA 99%
===========================================
Track: 09 - Полон
Quality: CDDA 100%
===========================================
Track: 10 - Вiнок
Quality: CDDA 100%
===========================================
Track: 11 - Слова
Quality: CDDA 100%
===========================================
Track: 12 - Даруй менi радiсть
Quality: CDDA 100%
===========================================
Track: 13 - Хай щастить
Quality: CDDA 100%
===========================================
Track: 14 - Очi синi
Quality: CDDA 100%
===========================================
Тривалість: 01:00:11
Мова: українська
Аудіо-кодек: FLAC
Бітрейт: 841 кб/с
Джерело: інший трекер (зібрано в образ, виправлено назви, теги)
Додаткова інформація:
"Ми дуже хочемо, щоб після наших пісень вам було тепліше на душі і гарніше на серці.
Закохуйтесь - і все у вас буде добре! Висловлюємо щиру подяку тим людям, які брали участь у створенні цього альбому. Особливо вдячні нашому композитору і аранжувальнику Ігореві Перчуку.
З любов'ю ваші Інеса і Орест"


Якщо Ви справді бажаєте підтримати українське - після прослуховування, якщо музика вам сподобалась,
придбайте ліцензійний диск.
Підтримаймо вітчизняних виконавців!


Срібний реліз (на рейтинг впливає 50% завантаженого)
 Трекер:    Зареєстрований   

Завантажити / скачати українську музику



відео для новачків



 Зареєстрований:   2013-12-15 16:54
 Розмір:   370 MB 
 Оцінка музики:   4.6/10 (Голосів: 5)
   
Ваш часовий пояс: GMT + 2 Години

Нова тема   Відповісти