Завантажити та скачати торренти українською


Старські та Гатч / Старскі і Хатч / Starsky & Hutch (2004) 720p 3хUkr/Eng | Sub Eng

Нові коментарі

Нова тема   Відповісти
Автор Повідомлення
bodia87 
Відео Гуртом - фільмокрай
Відео Гуртом - фільмокрай


З нами з: 24.01.09
Востаннє: 10.12.16
Повідомлень: 468

2013-12-12 00:00  
Старські та Гатч / Старскі і Хатч / Starsky & Hutch (2004) 720p 3хUkr/Eng | Sub Eng

Старські та Гатч / Старскі і Хатч / Starsky & Hutch (2004) 720p 3хUkr/Eng | Sub Eng


Жанр: комедія, кримінальний
Країна: США



Кінокомпанія: Warner Brothers & Dimension Films
Режисер: Тодд Філліпс
Актори: Бен Стіллер, Овен Вілсон, Вінс Вон, Фред Вільямсом, Снуп Доґґ, Вілл Фаррелл, Кармен Електра, Джульєтт Льюїс, Кріс Пенн, Емі Смарт, Джейсон Бейтман

Сюжет:
Детектив Дейвід Старські - досвідчений поліцейський, який працює на вулицях Бей-Сіті у Каліфорнії. Він весь час намагається довести собі та оточуючим, що може виконувати свої обов’язки не гірше, ніж його мати - легенда міської поліції. У детектива Кена Хатчінсона інші погляди на образ ідеального охоронця закону. Шеф поліції вирішує об’єднати таланти двох полісменів, зробивши їх напарниками.


Тривалість: 01:40:33
Якість:
Відео:
кодек:
розмір кадру: 1280 х 528
бітрейт: 3 461 кб/с
CRF: 18

Аудіо # 1:
мова: українська
переклад: багатоголосий закадровий
кодек: 2.0
бітрейт: 192 кб/с

Аудіо # 2:
мова: українська
переклад: двоголосий закадровий
кодек: 2.0
бітрейт: 192 кб/с

Аудіо # 3:
мова: українська
переклад: багатоголосий закадровий
кодек: 2.0
бітрейт: 192 кб/с

Аудіо # 4:
мова: англійська
переклад: оригінал
кодек: 5.1
бітрейт: 384 кб/с

Субтитри:
мова: англійська
тип: програмні (м'які)
формат: *.srt
MediaInfo
General
Unique ID : 239306932924456676173216587255786558214 (0xB408D6BBB81E613E85C22CAF511CD306)
Complete name : F:\release\Starsky & Hutch (2004) 720p [3xukr.eng] Hurtom (1).mkv
Format : Matroska
Format version : Version 2
File size : 3.17 GiB
Duration : 1h 40mn
Overall bit rate : 4 511 Kbps
Encoded date : UTC 2013-12-04 21:42:01
Writing application : mkvmerge v4.4.0 ('Die Wiederkehr') зібрано Oct 31 2010 21:52:48
Writing library : libebml v1.0.0 + libmatroska v1.0.0

Video
ID : 1
Format : AVC
Format/Info : Advanced Video Codec
Format profile : [email protected]
Format settings, CABAC : Yes
Format settings, ReFrames : 8 frames
Codec ID : V_MPEG4/ISO/AVC
Duration : 1h 40mn
Bit rate : 3 461 Kbps
Width : 1 280 pixels
Height : 528 pixels
Display aspect ratio : 2.40:1
Frame rate mode : Constant
Frame rate : 23.976 fps
Color space : YUV
Chroma subsampling : 4:2:0
Bit depth : 8 bits
Scan type : Progressive
Bits/(Pixel*Frame) : 0.214
Stream size : 2.43 GiB (77%)
Writing library : core 133 r2334 a3ac64b
Encoding settings : cabac=1 / ref=8 / deblock=1:1:-3 / analyse=0x3:0x113 / me=umh / subme=10 / psy=1 / psy_rd=1.00:0.15 / mixed_ref=1 / me_range=32 / chroma_me=1 / trellis=2 / 8x8dct=1 / cqm=0 / deadzone=21,11 / fast_pskip=0 / chroma_qp_offset=-3 / threads=6 / lookahead_threads=1 / sliced_threads=0 / nr=0 / decimate=1 / interlaced=0 / bluray_compat=0 / constrained_intra=0 / bframes=3 / b_pyramid=2 / b_adapt=2 / b_bias=0 / direct=1 / weightb=1 / open_gop=0 / weightp=2 / keyint=250 / keyint_min=23 / scenecut=40 / intra_refresh=0 / rc_lookahead=40 / rc=crf / mbtree=1 / crf=18.0 / qcomp=0.60 / qpmin=0 / qpmax=69 / qpstep=4 / vbv_maxrate=24000 / vbv_bufsize=24000 / crf_max=0.0 / nal_hrd=none / ip_ratio=1.40 / aq=1:1.10
Language : English
Default : Yes
Forced : No

Audio #1
ID : 2
Format : AC-3
Format/Info : Audio Coding 3
Mode extension : CM (complete main)
Format settings, Endianness : Big
Codec ID : A_AC3
Duration : 1h 40mn
Bit rate mode : Constant
Bit rate : 192 Kbps
Channel(s) : 2 channels
Channel positions : Front: L R
Sampling rate : 48.0 KHz
Bit depth : 16 bits
Compression mode : Lossy
Stream size : 138 MiB (4%)
Title : ICTV [ukr]
Language : Ukrainian
Default : Yes
Forced : No

Audio #2
ID : 3
Format : AC-3
Format/Info : Audio Coding 3
Mode extension : CM (complete main)
Format settings, Endianness : Big
Codec ID : A_AC3
Duration : 1h 40mn
Bit rate mode : Constant
Bit rate : 192 Kbps
Channel(s) : 2 channels
Channel positions : Front: L R
Sampling rate : 48.0 KHz
Bit depth : 16 bits
Compression mode : Lossy
Stream size : 138 MiB (4%)
Title : 1+1 [ukr]
Language : Ukrainian
Default : No
Forced : No

Audio #3
ID : 4
Format : AC-3
Format/Info : Audio Coding 3
Mode extension : CM (complete main)
Format settings, Endianness : Big
Codec ID : A_AC3
Duration : 1h 40mn
Bit rate mode : Constant
Bit rate : 192 Kbps
Channel(s) : 2 channels
Channel positions : Front: L R
Sampling rate : 48.0 KHz
Bit depth : 16 bits
Compression mode : Lossy
Stream size : 138 MiB (4%)
Title : NOVY [ukr]
Language : Ukrainian
Default : No
Forced : No

Audio #4
ID : 5
Format : AC-3
Format/Info : Audio Coding 3
Mode extension : CM (complete main)
Format settings, Endianness : Big
Codec ID : A_AC3
Duration : 1h 40mn
Bit rate mode : Constant
Bit rate : 384 Kbps
Channel(s) : 6 channels
Channel positions : Front: L C R, Side: L R, LFE
Sampling rate : 48.0 KHz
Bit depth : 16 bits
Compression mode : Lossy
Stream size : 276 MiB (9%)
Title : ENG
Language : English
Default : No
Forced : No

Text
ID : 6
Format : UTF-8
Codec ID : S_TEXT/UTF8
Codec ID/Info : UTF-8 Plain Text
Language : English
Default : No
Forced : No

Menu
00:00:00.000 : en:00:00:00.000
00:02:19.723 : en:00:02:19.723
00:04:34.566 : en:00:04:34.566
00:06:37.939 : en:00:06:37.939
00:09:03.418 : en:00:09:03.418
00:13:32.311 : en:00:13:32.311
00:16:55.598 : en:00:16:55.598
00:19:56.612 : en:00:19:56.612
00:21:59.360 : en:00:21:59.360
00:25:31.822 : en:00:25:31.822
00:28:58.654 : en:00:28:58.654
00:30:12.477 : en:00:30:12.477
00:34:01.164 : en:00:34:01.164
00:38:00.111 : en:00:38:00.111
00:41:38.788 : en:00:41:38.788
00:45:21.260 : en:00:45:21.260
00:50:00.414 : en:00:50:00.414
00:53:13.399 : en:00:53:13.399
00:56:28.385 : en:00:56:28.385
00:59:33.820 : en:00:59:33.820
01:02:29.746 : en:01:02:29.746
01:04:09.804 : en:01:04:09.804
01:06:48.922 : en:01:06:48.922
01:09:24.994 : en:01:09:24.994
01:13:00.376 : en:01:13:00.376
01:16:52.775 : en:01:16:52.775
01:20:24.903 : en:01:20:24.903
01:24:51.086 : en:01:24:51.086
01:29:44.713 : en:01:29:44.713
01:30:47.400 : en:01:30:47.400
01:33:57.257 : en:01:33:57.257
01:40:29.982 : en:01:40:29.982
Скріншоти











Велика подяка Gelios за українські доріжки від та

Джерело:


Срібний реліз (на рейтинг впливає 50% завантаженого)
 Трекер:    Зареєстрований   

Завантажити / скачати фільм українською



відео для новачків



 Зареєстрований:   2013-12-12 00:00
 Розмір:   3.17 GB 
 Оцінка фільму:   9.4/10 (Голосів: 12)
   
Maximenko Yuriy 
VIP


З нами з: 17.11.08
Востаннє: 09.12.16
Повідомлень: 379

2013-12-17 16:29  
bodia87
можете доріжкі окремо роздати?

Ваш часовий пояс: GMT + 2 Години

Нова тема   Відповісти