Завантажити та скачати торренти українською


Біла Вежа - Дискографія (2 альбоми) (2008-2011) [FLAC] | Hard'n'Heavy

Нові коментарі

Нова тема   Відповісти
Автор Повідомлення
Anonymous 







2013-12-11 16:12  
Біла Вежа - Дискографія (2 альбоми) (2008-2011) [FLAC] | Hard'n'Heavy

Біла Вежа - Дискографія (2 альбоми) (2008-2011) [FLAC] | Hard'n'Heavy


Стиль: Hard'n'Heavy
Країна, місто: Україна, Київ
Сайти: Офіційний сайт
Видавець: top sound records / Мистецька Агенція "Наш Формат"
Виконавці:
Максим Іващенко — вокал
Сергій Іванов — ударні
Андрій Томашенко - гітара
Ярослав гравицький — гітара
Євген Скоценко — бас-гітара
Андрій Ейсмонт — клавішні

Альбоми:
2008 - Те, чого вже немає

Біла Вежа - Дискографія (2 альбоми) (2008-2011) [FLAC] | Hard'n'Heavy

Пісні:
    1.Все марно
    2.Чорний стяг
    3.Твоє ім'я
    4.Золота лихоманка
    5.Я допоможу тобі
    6.Володарі доріг
    7.В'язень
    8.З ким будеш ти?
    9.Спливає час

Тривалість: 00:34:28
Мова:: українська
Аудіо-кодек: FLAC
Бітрейт: 976 кб/с
2013 - Біла Вежа

Біла Вежа - Дискографія (2 альбоми) (2008-2011) [FLAC] | Hard'n'Heavy

Пісні:
    1. Без Зброї
    2. Чужі Обличчя
    3. Зайві Слова
    4. Те, Що Бачиш Ти
    5. Біла Вежа
    6. Де Тебе Шукати
    7. Ти
    8. Золоте Дно
    9. Без Надії
    10. Останній День


Тривалість: 00:38:21
Мова:українська,
Аудіо-кодек: FLAC
Бітрейт: 1011 кб/с
Log

Exact Audio Copy V1.0 beta 3 from 29. August 2011

EAC extraction logfile from 10. December 2013, 18:44

Біла Вежа / Біла Вежа

Used drive : PIONEER DVD-RW DVR-112D Adapter: 0 ID: 1

Read mode : Secure
Utilize accurate stream : Yes
Defeat audio cache : Yes
Make use of C2 pointers : No

Read offset correction : 48
Overread into Lead-In and Lead-Out : No
Fill up missing offset samples with silence : Yes
Delete leading and trailing silent blocks : No
Null samples used in CRC calculations : Yes
Used interface : Native Win32 interface for Win NT & 2000

Used output format : User Defined Encoder
Selected bitrate : 1011 kBit/s
Quality : High
Add ID3 tag : No
Command line compressor : C:\Program Files\Exact Audio Copy\Flac\flac.exe
Additional command line options : -8 -V -T "ARTIST=%artist%" -T "TITLE=%title%" -T "ALBUM=%albumtitle%" -T "DATE=%year%" -T "TRACKNUMBER=%tracknr%" -T "GENRE=%genre%" -T "PERFORMER=%albuminterpret%" -T "COMPOSER=%composer%" %haslyrics%--tag-from-file=LYRICS="%lyricsfile%"%haslyrics% -T "ALBUMARTIST=%albumartist%" -T "DISCNUMBER=%cdnumber%" -T "TOTALDISCS=%totalcds%" -T "TOTALTRACKS=%numtracks%" -T "COMMENT=%comment%" %source% -o %dest%

TOC of the extracted CD

Track | Start | Length | Start sector | End sector
---------------------------------------------------------
1 | 0:00.00 | 2:49.44 | 0 | 12718
2 | 2:49.44 | 3:44.35 | 12719 | 29553
3 | 6:34.04 | 2:58.45 | 29554 | 42948
4 | 9:32.49 | 4:13.66 | 42949 | 61989
5 | 13:46.40 | 4:12.24 | 61990 | 80913
6 | 17:58.64 | 4:15.61 | 80914 | 100099
7 | 22:14.50 | 3:20.27 | 100100 | 115126
8 | 25:35.02 | 3:38.26 | 115127 | 131502
9 | 29:13.28 | 5:36.66 | 131503 | 156768
10 | 34:50.19 | 3:30.30 | 156769 | 172548

Range status and errors

Selected range

Filename G:\EAC Rips\Bila Vezha - Bila Vezha.wav

Peak level 99.2 %
Extraction speed 6.7 X
Range quality 100.0 %
Test CRC C40AFB7A
Copy CRC C40AFB7A
Copy OK

No errors occurred

AccurateRip summary

Track 1 not present in database
Track 2 not present in database
Track 3 not present in database
Track 4 not present in database
Track 5 not present in database
Track 6 not present in database
Track 7 not present in database
Track 8 not present in database
Track 9 not present in database
Track 10 not present in database

None of the tracks are present in the AccurateRip database

End of status report

==== Log checksum 830767E4675F654F18E1D89F1B72E27F0D4E8FB9FE2A3DEA5A37B1B3495B6A57 ====
Загальна тривалість: 01:12:53
Мова: українська
Аудіо-кодек: FLAC
Бітрейт: 976-1011кб/с
Джерело: РОМЕО
Додаткова інформація:
«Біла Вежа» — український рок-гурт, що грає хард-рок та хеві-метал.


Велика подяка пану РОМЕО за надання двох альбомів гурту

Якщо Ви справді бажаєте підтримати українське - після прослуховування, якщо музика вам сподобалась, придбайте ліцензійний диск. Підтримаймо вітчизняних виконавців!


Золотий реліз (завантажене не впливає на рейтинг)
 Трекер:    Зареєстрований   

Завантажити / скачати українську музику



відео для новачків



 Зареєстрований:   2014-04-07 20:24
 Розмір:   523 MB 
 Оцінка музики:   9.8/10 (Голосів: 15)
   
ssTAss 
Модератор музики


З нами з: 05.07.08
Востаннє: 02.12.16
Повідомлень: 10928

2013-12-11 17:38  
iwan wan написано:
2006 - Те, чого вже немає

ще б цей альбом мати правильним ріпом

POMEO 
Відео Гуртом - запис з ТБ
Відео Гуртом - запис з ТБ


З нами з: 01.07.08
Востаннє: 01.12.16
Повідомлень: 785

2013-12-11 19:13  
ssTAss написано:
ще б цей альбом мати правильним ріпом

Він в мене також є, але щось не можу ЕАС доналаштувати, якась помилка вилазить... (

Seriy100293 
VIP


З нами з: 17.08.11
Востаннє: 04.09.16
Повідомлень: 307

2013-12-12 18:44  
А чому альбом "Те,чого вже немає" підписаний 2006 роком? Наче ж 2008-го
Anonymous 







2013-12-12 19:23  
Seriy100293 написано:
А чому альбом "Те,чого вже немає" підписаний 2006 роком? Наче ж 2008-го

Так і знав,що десь має бути помилка...

ssTAss 
Модератор музики


З нами з: 05.07.08
Востаннє: 02.12.16
Повідомлень: 10928

2013-12-12 20:32  
POMEO написано:
Він в мене також є, але щось не можу ЕАС доналаштувати, якась помилка вилазить... (

дуже прошу)... скиньте, що за помилка
якщо диск затертий, то таке буває.. спробуйте почистити
якщо нічого не вийде, то зробіть ісо-файл (образ диску) і перекиньте мені... почаклую

Anonymous 







2013-12-28 14:48  
УВАГА!!!! Роздачу оновлено альбом "2008 - Те, чого вже немає " додано вже нормальним ріпом, за,що подяка пану РОМЕО
ssTAss 
Модератор музики


З нами з: 05.07.08
Востаннє: 02.12.16
Повідомлень: 10928

2014-04-05 20:36  
iwan wan написано:
УВАГА!!!! Роздачу оновлено альбом "2008 - Те, чого вже немає " додано вже нормальним ріпом, за,що подяка пану РОМЕО

це звісно супер, але чому другий альбом ще й в мр3?
iwan wan написано:

2013 - Біла Вежа/09 - Без надії.mp3 13 MB
2013 - Біла Вежа/06 - Де тебе шукати.mp3 10 MB

Anonymous 







2014-04-05 20:57  
ssTAss написано:
це звісно супер, але чому другий альбом ще й в мр3?

Ов,не побачив,завтра перероблю

ssTAss 
Модератор музики


З нами з: 05.07.08
Востаннє: 02.12.16
Повідомлень: 10928

2014-04-07 22:27  
скан диску від Funky_Soul

famous37 
Відео Гуртом - фільмокрай
Відео Гуртом - фільмокрай


З нами з: 16.11.08
Востаннє: 02.12.16
Повідомлень: 538

2015-02-08 20:34  
Якісний українські хеві метал. Рекомендую!
marshal77 
Новенький


З нами з: 21.11.10
Востаннє: 29.11.16
Повідомлень: 6

2016-09-28 20:57  
Вийшов новий альбом Бути Вільним...Може хтось викладе тут?
Anonymous 







2016-09-28 21:00  
З часом викладу і ту попсу
Ваш часовий пояс: GMT + 2 Години

Нова тема   Відповісти