Завантажити та скачати торренти українською


Крода (Kroda) - Varulven (2013) [FLAC] | Folk Black Metal

Нові коментарі

Нова тема   Відповісти
Автор Повідомлення
ssTAss 
Модератор музики


З нами з: 05.07.08
Востаннє: 10.12.16
Повідомлень: 10950

2013-12-11 01:07  
Крода (Kroda) - Varulven (2013) [FLAC] | Folk Black Metal

Крода (Kroda) - Varulven (2013) [FLAC] | Folk Black Metal


Стиль: Folk Black Metal
Країна, місто: Україна, Львів
Сайти: Офіційний сайт
Видавець: Purity-Through-Fire
Виконавці:
Viterzgir – гітара, акустична гітара, вокал, сопілка, окарина, дримба, трембіта, ріг, перкусія
Eisenslav – вокал, дримба, трембіта, ріг
Beralb – бас гітара
Serejen’ - гітара, акустична гітара
Olgerd - клавіші
Tur - барабани
Пісні:
    1. Varulven (Nordic Traditional Song Cover)
    2. Verwolf (Temnozor Cover)
    3. Nemesis (German Folkish Song Cover)
    4. Der Scharlachrote Tod ("How Much Is The Pest" version, Absurd Cover)
log
Exact Audio Copy V1.0 beta 3 from 29. August 2011

EAC extraction logfile from 19. November 2013, 19:06

Kroda / Varulven

Used drive : TSSTcorpCDDVDW SH-222AB Adapter: 2 ID: 1

Read mode : Secure
Utilize accurate stream : Yes
Defeat audio cache : Yes
Make use of C2 pointers : No

Read offset correction : 6
Overread into Lead-In and Lead-Out : No
Fill up missing offset samples with silence : Yes
Delete leading and trailing silent blocks : No
Null samples used in CRC calculations : Yes
Used interface : Native Win32 interface for Win NT & 2000

Used output format : User Defined Encoder
Selected bitrate : 128 kBit/s
Quality : High
Add ID3 tag : No
Command line compressor : D:\programs\Exact Audio Copy\Flac\flac.exe
Additional command line options : -V -8 -T "Date=%year%" -T "Genre=%genre%"-T"COMMENT=Ripped by capsfan" -8 -V %source%

TOC of the extracted CD

Track | Start | Length | Start sector | End sector
---------------------------------------------------------
1 | 0:00.00 | 5:15.09 | 0 | 23633
2 | 5:15.09 | 5:03.30 | 23634 | 46388
3 | 10:18.39 | 5:12.71 | 46389 | 69859
4 | 15:31.35 | 3:42.67 | 69860 | 86576

Range status and errors

Selected range

Filename G:\MUSIC\Kroda-VARULVEN-2013\Kroda - Varulven.wav

Peak level 100.0 %
Extraction speed 2.3 X
Range quality 99.9 %
Test CRC 8F50EBBB
Copy CRC 8F50EBBB
Copy OK

No errors occurred

AccurateRip summary

Track 1 not present in database
Track 2 not present in database
Track 3 not present in database
Track 4 not present in database

None of the tracks are present in the AccurateRip database

End of status report

---- CUETools DB Plugin V2.1.3

[CTDB TOCID: 7jiGaGLIbEaw5OFV.3spgE2nRL8-] found, Submit result: already submitted
[79a49de7] (1/1) Accurately ripped

==== Log checksum 85A74F0301E7DCE1404A51DA506D32435826A446786AC0BE0006390208A539F6 ====
fooCDtect
fooCDtect - foobar2000 + auCDtect, baralgin.

auCDtect: CD records authenticity detector, version 0.8.2
Copyright (c) 2004 Oleg Berngardt. All rights reserved.
Copyright (c) 2004 Alexander Djourik. All rights reserved.

mode: 0

===========================================
Track: 01 - Varulven (Nordic Traditional Song Cover)
Quality: CDDA 100%
===========================================
Track: 02 - Werwolf (Temnozor Cover)
Quality: CDDA 100%
===========================================
Track: 03 - Nemesis (German Folkish Song Cover)
Quality: MPEG 95%
===========================================
Track: 04 - Der Scharlachrote Tod (»How Much Is The Pest« Version, Absurd Cover)
Quality: MPEG 95%
===========================================
Тривалість: 00:19:14
Мова: норвезька (1), російська (2), відсутня (3), англійська (4)
Аудіо-кодек: FLAC
Бітрейт: 938 кб/с
Джерело: ріп capsfan
Додаткова інформація:
в роздачі присутні скани


Якщо Ви справді бажаєте підтримати українське - після прослуховування, якщо музика вам сподобалась,
придбайте ліцензійний диск.
Підтримаймо вітчизняних виконавців!


Срібний реліз (на рейтинг впливає 50% завантаженого)
 Трекер:    Зареєстрований   

Завантажити / скачати українську музику



відео для новачків



 Зареєстрований:   2013-12-11 01:07
 Розмір:   146 MB 
 Оцінка музики:   7.8/10 (Голосів: 12)
   
Ваш часовий пояс: GMT + 2 Години

Нова тема   Відповісти