Завантажити та скачати торренти українською


Відкрита могила / Open Grave (2013) Ukr/Eng

Нові коментарі

Нова тема   Відповісти
Автор Повідомлення
BOOGud 
VIP


З нами з: 06.03.12
Востаннє: 11.11.16
Повідомлень: 907

2013-12-09 10:23  
Відкрита Могила / Open Grave (2013) Ukr/Eng

Відкрита могила / Open Grave (2013) Ukr/Eng


Жанр: жахи, містика, триллер, екшн
Країна: США



Кінокомпанія: Atlas
Режисер: Гонсало Лопес-Гальєго (Аполлон 18, Царь Гори )
Актори: Шарлто Коплі (Район N9, Елізіум) , Джозеф Морган, Томас Кречман, Ерін Річардс, Джозі Хо, Макс Роттслі, Каті Домбі, Єва Ботос, Березень Сабо, М. Фрайкс

Переклад : BOOGud
Озвучення: Дмитро Урсуляк
Монтаж та робота зі звуком: BOOGud.
Об'ємний звук(5.1): BOOGud
Обкладинки:


Сюжет:
Чоловік опритомнів у відкритому могильнику серед безлічі трупів. Йому вдається вибратися і в лісі він знаходить будинок, де зустрічає ще людей, що так само як і він, втратили пам'ять. Далі герої намагаються з'ясувати, що ж сталося раніше.


Тривалість: 01:42:34
Якість:
Відео:
кодек:
розмір кадру: 720x304, 24.00 fps
бітрейт: 1 522 кб/с

Аудіо # 1:
мова: українська
переклад: одноголосий закадровий | BOOGud
кодек: 5.1
бітрейт: 448 кб/с

Аудіо # 2:
мова: англійська
переклад: оригінал
кодек: 5.1
бітрейт: 384 кб/с



Скріншоти














































MediaInfo

General
Complete name : K:\ozvuchka2\Open.Grave.2013.BRRip.UKR.BOOGud.UAVoice.avi
Format : AVI
Format/Info : Audio Video Interleave
File size : 1.69 GiB
Duration : 1h 42mn
Overall bit rate : 2 368 Kbps
Writing application : VirtualDubMod 1.5.10.2 (build 2540/release)
Writing library : VirtualDubMod build 2540/release

Video
ID : 0
Format : MPEG-4 Visual
Format profile : Advanced [email protected]
Format settings, BVOP : 2
Format settings, QPel : No
Format settings, GMC : No warppoints
Format settings, Matrix : Default (H.263)
Codec ID :
Codec ID/Hint :
Duration : 1h 42mn
Bit rate : 1 522 Kbps
Width : 720 pixels
Height : 304 pixels
Display aspect ratio : 2.35:1
Frame rate : 24.000 fps
Color space : YUV
Chroma subsampling : 4:2:0
Bit depth : 8 bits
Scan type : Progressive
Compression mode : Lossy
Bits/(Pixel*Frame) : 0.290
Stream size : 1.09 GiB (64%)
Writing library : 1.2.1 (UTC 2008-12-04)

Audio #1
ID : 1
Format : AC-3
Format/Info : Audio Coding 3
Mode extension : CM (complete main)
Format settings, Endianness : Big
Codec ID : 2000
Duration : 1h 42mn
Bit rate mode : Constant
Bit rate : 448 Kbps
Channel count : 6 channels
Channel positions : Front: L C R, Side: L R, LFE
Sampling rate : 48.0 KHz
Bit depth : 16 bits
Compression mode : Lossy
Stream size : 328 MiB (19%)
Alignment : Split accross interleaves
Interleave, duration : 42 ms (1.00 video frame)
Interleave, preload duration : 500 ms

Audio #2
ID : 2
Format : AC-3
Format/Info : Audio Coding 3
Mode extension : CM (complete main)
Format settings, Endianness : Big
Codec ID : 2000
Duration : 1h 42mn
Bit rate mode : Constant
Bit rate : 384 Kbps
Channel count : 6 channels
Channel positions : Front: L C R, Side: L R, LFE
Sampling rate : 48.0 KHz
Bit depth : 16 bits
Compression mode : Lossy
Stream size : 281 MiB (16%)
Alignment : Split accross interleaves
Interleave, duration : 42 ms (1.00 video frame)
Interleave, preload duration : 500 ms
Джерело: uavoice.com
Особиста оцінка: 10 - без зайвих вагань рекомендую всім!


Авторський реліз (завантажувати можна без реєстрації)
 Трекер:    Зареєстрований   

Завантажити / скачати фільм українською



відео для новачків



 Зареєстрований:   2013-12-10 04:49
 Розмір:   1.69 GB 
 Оцінка фільму:   8.9/10 (Голосів: 65)
   
Інші релізи
   Відкрита могила / Open Grave (2013) 1080p Ukr/Eng BOOGud  1 / 0   8.4 GB   2014-02-15 02:40 
   Відкрита могила / Open Grave (2013) 720p Ukr/Eng BOOGud  3 / 0   4.83 GB   2013-12-10 04:29 
Vetal-XL 
VIP


З нами з: 31.03.10
Востаннє: 07.12.16
Повідомлень: 837

2013-12-09 21:49  
Люблю Коплі, як актора, але так вбиває коли він знімається у сумнівних проектах Sad (1)
bot 
робот


З нами з: 30.09.07
Востаннє: 26.05.05
Повідомлень: 16030

2013-12-10 04:48  
Тему перенесено з Анонси релізів до форуму Фільми


BOOGud

BOOGud 
VIP


З нами з: 06.03.12
Востаннє: 11.11.16
Повідомлень: 907

2013-12-10 04:54  
для довідки:
на момент виходу цієї озвучки, російської альтернативи ще не було

insuccub 
Новенький


З нами з: 21.07.12
Востаннє: 07.12.16
Повідомлень: 9

2013-12-10 16:43  
Шановний BOOGud, маю до вас запитання: чому в назві стрічки слово "Могила" написане з великої літери? Чи це чиєсь ім"я?
BOOGud 
VIP


З нами з: 06.03.12
Востаннє: 11.11.16
Повідомлень: 907

2013-12-10 18:39  
insuccub написано:
Шановний BOOGud, маю до вас запитання: чому в назві стрічки слово "Могила" написане з великої літери? Чи це чиєсь ім"я?

копіпастив, виправив

freddycryger 
VIP


З нами з: 21.11.12
Востаннє: 06.11.16
Повідомлень: 389

2013-12-10 22:59  
До жанру можна було б додати психологічний. А загалом фільм мені не дуже зрозумілий (хтось когось заразив, хтось знає чиєсь ім'я, головорізи бояться трупів і т. д.) 5/10
pawtet153 
Свій


З нами з: 02.03.12
Востаннє: 07.12.16
Повідомлень: 80

2013-12-11 00:39  
freddycryger
Шо за спойлер???!!!
А BOOGud молодець, вже набагато краща якість озвучки.

W810i 
Новенький


З нами з: 01.12.13
Востаннє: 19.07.15
Повідомлень: 1

2013-12-13 13:09  
"Нива" на скріні повеселила) Wide grin
waloha 
VIP


З нами з: 29.12.09
Востаннє: 06.12.16
Повідомлень: 323

2013-12-15 16:09  
Класний фільм, все з могилою розяснилося що і до чого на послідній хвилині, рекомендую для перегляду.
presfer 
Новенький


З нами з: 29.08.09
Востаннє: 02.12.16
Повідомлень: 7

2013-12-16 22:21  
мені теж сподобався, цікавий склад героїв, сюжет гарний) раджу переглянути!
knedlyk 
Поважний учасник


З нами з: 08.07.08
Востаннє: 07.12.16
Повідомлень: 220

2013-12-18 12:39  
Не особливо вразило. Щось дуже багато фільмів на тему всесвітнього зараження вірусами появляється останнім часом.
blackcrow 
Новенький


З нами з: 15.02.12
Востаннє: 09.08.15
Повідомлень: 2

2013-12-20 00:05  
ОСОБИСТА ОЦІНКА 5/10 . Фільм на один раз(((
Limbo 
Новенький


З нами з: 11.07.12
Востаннє: 31.07.15
Повідомлень: 8

2013-12-21 15:48  
Філь не цікавий,дуже все якось швидко і наївно відбувається...
varvar_666 
Частий відвідувач


З нами з: 12.02.10
Востаннє: 21.11.16
Повідомлень: 41

2013-12-24 20:51  
жахи. не цікаво ((
komu vnuz 
Частий відвідувач


З нами з: 29.10.11
Востаннє: 07.12.16
Повідомлень: 27

2014-02-25 19:04  
+1
volodymyr_sav 
VIP


З нами з: 07.10.13
Востаннє: 05.12.16
Повідомлень: 794

2016-04-22 18:47  
Немає тут ні жахів, ні екшену. Звичайна собі чергова типу постапокаліптика. Кіно трохи затягнуте, в плані того, що до останньої хвилини нічого не зрозуміло, хоча ідея далеко не нова і я багато про що сам здогадувався протягом фільму. Ніби й нема ніякого браку, але й не вразило воно нічим, жодної секунди. Час потрачено не дарма - 5/10 і в основному всі бали за фінал
Ваш часовий пояс: GMT + 2 Години

Нова тема   Відповісти