Завантажити та скачати торренти українською


Малавіта / The Family (2013) 720р Ukr/Eng

Нові коментарі

Нова тема   Відповісти
Автор Повідомлення
Sando7 
Відео Гуртом - запис з ТБ
Відео Гуртом - запис з ТБ


З нами з: 04.05.09
Востаннє: 06.12.16
Повідомлень: 840

2013-12-07 22:27  
Малавіта / The Family (2013) 720р Ukr/Eng

Малавіта / The Family (2013) 720р Ukr/Eng


Жанр: комедія, кримінальний, трилер
Країна: США, Франція



Кінокомпанія: EuropaCorp, Relativity Media, TF1 Films Production
Режисер: Люк Бессон / Luc Besson
Актори: Роберт Де Ніро / Robert De Niro, Мішель Пфайфер / Michelle Pfeiffer, Томмі Лі Джонс / Tommy Lee Jones, Діана Аґрон / Dianna Agron, Джон Д’Лео / John D'Leo, Джон Фреда / Jon Freda, Джимі Палумбо / Jimmy Palumbo та інші

Сюжет:
У мале французьке місто приїжджає письменник Фред Блейк разом зі своєю родиною: дружиною, донькою і сином. Але насправді Фред Блейк — це Джованні Манцоні, мафіозі, що переховується у Франції за програмою захисту свідків. Сім'я дуже часто змінює своє місце перебування, оскільки їх знаходила італійська мафія. Коза Ностра знайшла їх і у Франції.


Тривалість: 01:51:13
Якість:
Відео:
кодек:
розмір кадру: 1280x536
бітрейт: 4603 кб/с

Аудіо # 1:
мова: українська
переклад: професійний дубльований
кодек: 2.0
бітрейт: 192 кб/с

Аудіо # 2:
мова: англійська
переклад: оригінал
кодек: 5.1
бітрейт: 448 кб/с
MediaInfo
Complete name : D:\uTorrentPortable\Data\downloads\The Family (2013) 720p [Ukr,Eng] [Hurtom].mkv
Format : Matroska
Format version : Version 1
File size : 4.09 GiB
Duration : 1h 51mn
Overall bit rate : 5 247 Kbps
Movie name : -=LEONARDO=-
Encoded date : UTC 2013-12-07 20:54:13
Writing application : mkvmerge v2.4.1 ('Use Me') built on Dec 5 2008 18:30:05
Writing library : libebml v0.7.7 + libmatroska v0.8.1

Video
ID : 1
Format : AVC
Format/Info : Advanced Video Codec
Format profile : [email protected]
Format settings, CABAC : Yes
Format settings, ReFrames : 9 frames
Codec ID : V_MPEG4/ISO/AVC
Duration : 1h 51mn
Bit rate : 4 503 Kbps
Width : 1 280 pixels
Height : 536 pixels
Display aspect ratio : 2.40:1
Frame rate mode : Constant
Frame rate : 23.976 fps
Color space : YUV
Chroma subsampling : 4:2:0
Bit depth : 8 bits
Scan type : Progressive
Bits/(Pixel*Frame) : 0.274
Stream size : 3.51 GiB (86%)
Writing library : core 125 r2208 d9d2288
Encoding settings : cabac=1 / ref=9 / deblock=1:-3:-3 / analyse=0x3:0x133 / me=umh / subme=11 / psy=1 / psy_rd=1.00:0.10 / mixed_ref=1 / me_range=32 / chroma_me=1 / trellis=2 / 8x8dct=1 / cqm=0 / deadzone=21,11 / fast_pskip=0 / chroma_qp_offset=-3 / threads=12 / lookahead_threads=2 / sliced_threads=0 / nr=0 / decimate=1 / interlaced=0 / bluray_compat=0 / constrained_intra=0 / bframes=8 / b_pyramid=2 / b_adapt=2 / b_bias=0 / direct=1 / weightb=1 / open_gop=0 / weightp=2 / keyint=250 / keyint_min=23 / scenecut=40 / intra_refresh=0 / rc=crf / mbtree=0 / crf=18.0 / qcomp=0.60 / qpmin=0 / qpmax=69 / qpstep=4 / ip_ratio=1.40 / pb_ratio=1.30 / aq=2:1.00
Language : English
Default : Yes
Forced : No

Audio #1
ID : 2
Format : AC-3
Format/Info : Audio Coding 3
Mode extension : CM (complete main)
Format settings, Endianness : Big
Codec ID : A_AC3
Duration : 1h 51mn
Bit rate mode : Constant
Bit rate : 192 Kbps
Channel count : 2 channels
Channel positions : Front: L R
Sampling rate : 48.0 KHz
Bit depth : 16 bits
Compression mode : Lossy
Stream size : 153 MiB (4%)
Title : UKR_LINE
Language : Ukrainian
Default : Yes
Forced : No

Audio #2
ID : 3
Format : AC-3
Format/Info : Audio Coding 3
Mode extension : CM (complete main)
Format settings, Endianness : Big
Codec ID : A_AC3
Duration : 1h 51mn
Bit rate mode : Constant
Bit rate : 448 Kbps
Channel count : 6 channels
Channel positions : Front: L C R, Side: L R, LFE
Sampling rate : 48.0 KHz
Bit depth : 16 bits
Compression mode : Lossy
Stream size : 357 MiB (9%)
Language : English
Default : No
Forced : No

Menu
00:00:00.000 : en:00:00:00.000
00:06:26.719 : en:00:06:26.719
00:09:57.430 : en:00:09:57.430
00:13:23.636 : en:00:13:23.636
00:17:10.946 : en:00:17:10.946
00:22:08.493 : en:00:22:08.493
00:27:46.081 : en:00:27:46.081
00:31:46.821 : en:00:31:46.821
00:36:56.255 : en:00:36:56.255
00:42:52.736 : en:00:42:52.736
00:45:10.207 : en:00:45:10.207
00:54:17.170 : en:00:54:17.170
00:58:33.092 : en:00:58:33.092
01:02:21.988 : en:01:02:21.988
01:04:30.032 : en:01:04:30.032
01:07:11.944 : en:01:07:11.944
01:12:59.124 : en:01:12:59.124
01:17:25.265 : en:01:17:25.265
01:25:00.095 : en:01:25:00.095
01:28:02.819 : en:01:28:02.819
01:31:05.626 : en:01:31:05.626
01:35:11.122 : en:01:35:11.122
01:44:14.873 : en:01:44:14.873
01:45:17.102 : en:01:45:17.102
Скріншоти





Джерело:


 Трекер:    Зареєстрований   

Завантажити / скачати фільм українською



відео для новачків



 Зареєстрований:   2013-12-07 23:06
 Розмір:   4.09 GB 
 Оцінка фільму:   9.1/10 (Голосів: 23)
   
Інші релізи
   Малавіта / The Family (2013) Ukr/Eng patriot2305  3 / 0   2.18 GB   2013-12-07 22:19 
   Малавіта / The Family (2013) AVC patriot2305  2 / 0   2.05 GB   2013-12-07 21:05 
   Малавіта / The Family (2013) patriot2305  8 / 1   1.44 GB   2013-12-07 15:45 
bot 
робот


З нами з: 30.09.07
Востаннє: 26.05.05
Повідомлень: 16005

2013-12-07 22:43  
Тему перенесено з Пісочниця до форуму Анонси релізів


patriot2305

bot 
робот


З нами з: 30.09.07
Востаннє: 26.05.05
Повідомлень: 16005

2013-12-07 23:06  
Тему перенесено з Анонси релізів до форуму Фільми в HD


Sando7

georrrgh 
Новенький


З нами з: 02.10.13
Востаннє: 09.01.14
Повідомлень: 1

2013-12-14 21:19  
Гарний фільм для сімейного перегляду, може трохи затянутий по часу, та не сильно. І без закавучок Бессона (типу як в Таксі).
ron_ 
Новенький


З нами з: 03.02.11
Востаннє: 29.11.16
Повідомлень: 11

2013-12-30 23:54  
чудовий, веселий фільм
omm 
Відео Гуртом - фільмокрай
Відео Гуртом - фільмокрай


З нами з: 12.06.12
Востаннє: 05.12.16
Повідомлень: 2066

2013-12-31 09:47  
georrrgh написано:
для сімейного перегляду

спірне питання

conve 
Новенький


З нами з: 04.02.13
Востаннє: 05.12.16
Повідомлень: 11

2014-01-09 00:22  
Дякую!
Хороше кіно, але зовсім не для сімейного перегляду )) ..хіба, що від +16)

Карантин 
Новенький


З нами з: 16.04.11
Востаннє: 12.10.16
Повідомлень: 9

2014-01-15 22:32  
Фільм непоганий. Звісно не краща робота Бессона, але на звичному рівні. Знятий так, що утримує на весь час перегляду, але більше одного разу навряд чи його хтось буде дивитися Happy
trelxtrel 
VIP


З нами з: 15.12.10
Востаннє: 06.12.16
Повідомлень: 327

2014-03-17 11:43  
Мені сподобався! Кримінальні фільми про мафію та ще й з елементами чорного гумору - непогана комбінація! Залишає виключно позитивні емоції! Фільм не сімейний, але розповідає про те, що в житті, яким би воно не було - сім'я - це головне і завжди на першому місці!

7/10

Blitzkrieg 
Новенький


З нами з: 21.02.10
Востаннє: 25.11.16
Повідомлень: 11

2014-03-21 10:18  
Перепрошую! А буде, цей фільм, з кращім звуком?
NeetScrool 
Відео Гуртом - фільмокрай
Відео Гуртом - фільмокрай


З нами з: 10.01.13
Востаннє: 06.12.16
Повідомлень: 2219

2014-03-21 10:32  
Blitzkrieg написано:
Перепрошую! А буде, цей фільм, з кращім звуком?

Ні.

Blitzkrieg 
Новенький


З нами з: 21.02.10
Востаннє: 25.11.16
Повідомлень: 11

2014-03-21 10:41  
NeetScrool
Дякую за відповідь!

Maters 
VIP


З нами з: 27.03.12
Востаннє: 05.12.16
Повідомлень: 1159

2014-08-31 09:08  
trelxtrel написано:
Фільм не сімейний, але розповідає про те, що в житті, яким би воно не було - сім'я - це головне і завжди на першому місці!

+ 100

dmytroua 
Свій


З нами з: 30.12.07
Востаннє: 29.11.16
Повідомлень: 69

2015-08-23 22:54  
Досить якісний фільм. Хлопчина трохи перегравав, а так - все супер. Особливо саундреки ;-)
Ваш часовий пояс: GMT + 2 Години

Нова тема   Відповісти