Завантажити та скачати торренти українською


Воанергес - Цілющий Рок Древнього Києва (2013) [WV] | Rock / Neofolk

Нові коментарі

Нова тема   Відповісти
Останній раз роздавалося ssTAss (2016-12-10)
Автор Повідомлення
ssTAss 
Модератор музики


З нами з: 05.07.08
Востаннє: 10.12.16
Повідомлень: 10950

2013-12-07 18:52  
Воанергес - Цілющий Рок Древнього Києва (2013) [WV] | Rock / Neofolk

Воанергес - Цілющий Рок Древнього Києва (2013) [WV] | Rock / Neofolk


Стиль: Folk Rock
Країна, місто: Україна, Київ
Сайти: Офіційний сайт
Видавець: COMP Music/EMI
Виконавці:
Макогон Роман: клавіші, сопілки, тилинка, зозулька, бугай, електроліра, спів
Огороднік Валерій: гітара, дримба, зозулька, спів.
Бень Генадій: труба, флюгельгорн, ріжок, сопілка, зозулька, спів.
Вадим Соколик: бас-гітара, спів.
Янківський Валентин: барабани.
Пісні:
    1. Чи то йому здалося...
    2. Дума про стольний град Київ
    3. Веселися, душа!
    4. Биліна
    5. Білий Коню
    6. Диво
    7. Друга чумацька
    8. В’язень
    9. Диваки
    10. Перегуди
    11. Анатомія
log
Exact Audio Copy V1.0 beta 3 from 29. August 2011

EAC extraction logfile from 26. May 2013, 15:31

Воанергес / Цілющий рок древнього Києва

Used drive : SAMSUNG CD-ROM SC-152C Adapter: 0 ID: 0

Read mode : Secure
Utilize accurate stream : Yes
Defeat audio cache : Yes
Make use of C2 pointers : No

Read offset correction : 600
Overread into Lead-In and Lead-Out : No
Fill up missing offset samples with silence : Yes
Delete leading and trailing silent blocks : No
Null samples used in CRC calculations : Yes
Used interface : Native Win32 interface for Win NT & 2000

Used output format : User Defined Encoder
Selected bitrate : 1024 kBit/s
Quality : High
Add ID3 tag : No
Command line compressor : C:\Blade\Programs\wavpack-4.60.1\wavpack.exe
Additional command line options : -hlmx2 %source% %dest%

TOC of the extracted CD

Track | Start | Length | Start sector | End sector
---------------------------------------------------------
1 | 0:00.00 | 2:54.44 | 0 | 13093
2 | 2:54.44 | 3:58.21 | 13094 | 30964
3 | 6:52.65 | 4:26.73 | 30965 | 50987
4 | 11:19.63 | 5:20.67 | 50988 | 75054
5 | 16:40.55 | 3:24.70 | 75055 | 90424
6 | 20:05.50 | 6:06.21 | 90425 | 117895
7 | 26:11.71 | 3:09.55 | 117896 | 132125
8 | 29:21.51 | 5:11.21 | 132126 | 155471
9 | 34:32.72 | 4:40.61 | 155472 | 176532
10 | 39:13.58 | 4:27.30 | 176533 | 196587
11 | 43:41.13 | 4:21.27 | 196588 | 216189

Range status and errors

Selected range

Filename C:\Blade\music\work\Voanerges - 2013 - Tsilyushchyy rok drevn'oho Kyyeva.wav

Peak level 100.0 %
Extraction speed 1.3 X
Range quality 99.9 %
Test CRC 3B2B1A48
Copy CRC 3B2B1A48
Copy OK

No errors occurred

AccurateRip summary

Track 1 not present in database
Track 2 not present in database
Track 3 not present in database
Track 4 not present in database
Track 5 not present in database
Track 6 not present in database
Track 7 not present in database
Track 8 not present in database
Track 9 not present in database
Track 10 not present in database
Track 11 not present in database

None of the tracks are present in the AccurateRip database

End of status report

---- CUETools DB Plugin V2.1.3

[CTDB TOCID: lD8wHWSxZTTYkLaF7xEBSM1fAzI-] disk not present in database, Submit result: database access error: The request was aborted: The request was canceled.

==== Log checksum 629CBE1DE0F8D38787949DDA454847A6BDABE916AEC9F3CC59A2D55F975B7BA3 ====
fooCDtect
fooCDtect - foobar2000 + auCDtect, baralgin.

auCDtect: CD records authenticity detector, version 0.8.2
Copyright (c) 2004 Oleg Berngardt. All rights reserved.
Copyright (c) 2004 Alexander Djourik. All rights reserved.

mode: 0

===========================================
Track: 01 - Чи то йому здалося...
Quality: CDDA 100%
===========================================
Track: 02 - Дума про стольний град Київ
Quality: CDDA 100%
===========================================
Track: 03 - Веселися, душа!
Quality: CDDA 100%
===========================================
Track: 04 - Быліна
Quality: CDDA 99%
===========================================
Track: 05 - Білий Коню
Quality: CDDA 100%
===========================================
Track: 06 - Диво
Quality: CDDA 99%
===========================================
Track: 07 - Друга чумацька
Quality: CDDA 100%
===========================================
Track: 08 - В’язень
Quality: CDDA 100%
===========================================
Track: 09 - Диваки
Quality: CDDA 100%
===========================================
Track: 10 - Перегуди
Quality: CDDA 100%
===========================================
Track: 11 - Анатомія
Quality: CDDA 100%
===========================================
Тривалість: 00:48:03
Мова: українська
Аудіо-кодек: WavPack
Бітрейт: 1006 кб/с
Джерело: нетлаб
Додаткова інформація:
Четвертий студійний альбом Воанергес – це, можна сказати, знак вогню. Насамперед внутрішнього – без нього просто неможливо так послідовно іти обраним шляхом, залишаючись осторонь торованих комерційних гайвеїв. Але і зовнішнього також – бо в цій музиці стільки енергії, що вона однозначно не лишає місця для байдужості. Десь заворожує арт-роковими пасажами, десь – шаманить сутінковими ритмами, десь – рясно додає фольклорних візерунків. Окремо варто згадати, що тут, крім української, звучить і старослов’янська мова – і це, ясна річ, дуже колоритний хід. Що ж до текстів, то в них вистачає актуальних, гострих реалій, тому разом з сучасною музикою, збагаченою архаїчними мотивами – вони справляють дуже цікаве враження. Наче перебуваєш у двоїстому часовому потоці, дивишся одночасно зсередини і з відстані – аж якоїсь миті розумієш, що минулого часу просто не існує. Все, що було і все, що буде – все є. Зараз.


Якщо Ви справді бажаєте підтримати українське - після прослуховування, якщо музика вам сподобалась,
придбайте ліцензійний диск.
Підтримаймо вітчизняних виконавців!


Срібний реліз (на рейтинг впливає 50% завантаженого)
 Трекер:    Зареєстрований   

Завантажити / скачати українську музику



відео для новачків



 Зареєстрований:   2013-12-07 18:52
 Розмір:   407 MB 
 Оцінка музики:   6.6/10 (Голосів: 8)
   
ssTAss 
Модератор музики


З нами з: 05.07.08
Востаннє: 10.12.16
Повідомлень: 10950

2013-12-07 18:53  
Ваш часовий пояс: GMT + 2 Години

Нова тема   Відповісти