Завантажити та скачати торренти українською


Гаррі Поттер і філософський камінь / Harry Potter and the Sorcerer's Stone (2001) 1080p 2xUkr/Eng | Sub Ukr/Eng

Нові коментарі

Нова тема   Відповісти
Автор Повідомлення
leroykendall 
Модератор HD


З нами з: 03.01.11
Востаннє: 20.11.16
Повідомлень: 749

2013-12-07 18:26  
Гаррі Поттер і філософський камінь / Harry Potter and the Sorcerer's Stone (2001) 1080p 2xUkr/Eng | Sub Ukr/Eng

Гаррі Поттер і філософський камінь / Harry Potter and the Sorcerer's Stone (2001) 1080p 2xUkr/Eng | Sub Ukr/Eng

«Let The Magic Begin.»


Жанр: пригодницький, сімейний, фентезі
Країна: США, Великобританія






Кінокомпанія: Warner Bros. Pictures, Heyday Films, 1492 Pictures
Режисер: Кріс Коламбус (Chris Columbus)
Актори: Деніел Редкліф (Daniel Radcliffe), Руперт Ґрінт (Rupert Grint), Емма Вотсон (Emma Watson), Том Фелтон (Tom Felton), Річард Гарріс (Richard Harris), Меґґі Сміт (Maggie Smith), Роббі Колтрейн (Robbie Coltrane), Алан Рікмен (Alan Rickman), Джеймс Фелпс (James Phelps), Олівер Фелпс (Oliver Phelps), Іен Герт (Ian Hart)

Сюжет:
Одинадцятирічний Гаррі Поттер, який втратив своїх батьків у ранньому дитинстві, живе з дядьком і тіткою. Він змушений терпіти їхнє погане ставлення до себе й жити під сходами. Але одного разу, хлопчик одержує запрошення вчитися в Гоґвортсі - школі для юних чарівників, де вчать чаклунству й магії. Виявляється, батьки Гаррі були чарівниками, але їх убив злий чаклун, що тепер намагається проникнути в Гоґвортс, щоб украсти захований там філософський камінь. Незважаючи на протести свого злого сімейства, Гаррі відправляється в школу, де буде вчитися чарівництву. Там він знайде нових цікавих друзів, які допоможуть йому довідатися правду про батьків. Гаррі також чекає багато чарівних і дивних пригод, а все його життя перетворитися на казку.


Тривалість: 02:32:21
Якість: 1080p
Відео:
кодек:
розмір кадру: 1920 x 796
бітрейт: 10000 кб/с

Аудіо # 1:
мова: українська
переклад: багатоголосий закадровий Новий канал
кодек: 5.1
бітрейт: 448 кб/с Аудіо # 2:
мова: українська
переклад: багатоголосий закадровий
кодек: 2.0
бітрейт: 192 кб/с Аудіо # 3:
мова: українська
переклад: багатоголосий закадровий
кодек: 2.0
бітрейт: 192 кб/с
Інформація про озвучення
двоканальний варіант першої доріжки
Аудіо # 4:
мова: англійська
переклад: оригінал
кодек: 5.1
бітрейт: 1536 кб/с

Субтитри:
мова: українська
тип: програмні (м'які)
формат: *.srt

Субтитри:
мова: англійська
тип: програмні (м'які)
формат: *.srt

Збережені оригінальні чаптери як на Blu-ray.
MediaInfo
Код:
General
Unique ID                                : 191913913044836931281117189196947910599 (0x90614672B474B38C96ECF741683BEFC7)
Complete name                            : \\10.1.7.194\share2\movies\Harry.Potter.and.the.Sorcerers.Stone.1080p\Harry Potter and the Sorcerer's Stone (2001) [2xUkr, Eng] 1080p [Hurtom, HDClub] by leroykendall.mkv
Format                                   : Matroska
Format version                           : Version 4 / Version 2
File size                                : 13.2 GiB
Duration                                 : 2h 32mn
Overall bit rate                         : 12.4 Mbps
Movie name                               : Harry Potter and the Sorcerer's Stone (2001) [2xUkr, Eng] 1080p [Hurtom, HDClub] by leroykendall
Encoded date                             : UTC 2013-12-06 21:01:43
Writing application                      : mkvmerge v6.2.0 ('Promised Land') built on Apr 28 2013 12:22:01
Writing library                          : libebml v1.3.0 + libmatroska v1.4.0

Video
ID                                       : 1
Format                                   : AVC
Format/Info                              : Advanced Video Codec
Format profile                           : [email protected]
Format settings, CABAC                   : Yes
Format settings, ReFrames                : 5 frames
Codec ID                                 : V_MPEG4/ISO/AVC
Duration                                 : 2h 32mn
Bit rate                                 : 10.0 Mbps
Width                                    : 1 920 pixels
Height                                   : 796 pixels
Display aspect ratio                     : 2.40:1
Frame rate mode                          : Constant
Frame rate                               : 23.976 fps
Color space                              : YUV
Chroma subsampling                       : 4:2:0
Bit depth                                : 8 bits
Scan type                                : Progressive
Bits/(Pixel*Frame)                       : 0.274
Stream size                              : 10.4 GiB (79%)
Title                                    : Harry Potter and the Sorcerer's Stone (2001) 1080p
Writing library                          : core 64 r985 e256ea1
Encoding settings                        : cabac=1 / ref=5 / deblock=1:-3:-3 / analyse=0x3:0x113 / me=umh / subme=6 / psy_rd=1.0:0.0 / brdo=1 / mixed_ref=1 / me_range=16 / chroma_me=1 / trellis=0 / 8x8dct=1 / cqm=2 / deadzone=6,4 / chroma_qp_offset=-2 / threads=6 / nr=0 / decimate=0 / mbaff=0 / bframes=16 / b_pyramid=1 / b_adapt=1 / b_bias=0 / direct=1 / wpredb=1 / bime=1 / keyint=250 / keyint_min=25 / scenecut=40(pre) / rc=2pass / bitrate=10027 / ratetol=1.0 / qcomp=0.60 / qpmin=10 / qpmax=51 / qpstep=4 / cplxblur=20.0 / qblur=0.5 / ip_ratio=1.40 / pb_ratio=1.30 / aq=1:1.00
Language                                 : English
Default                                  : Yes
Forced                                   : No

Audio #1
ID                                       : 2
Format                                   : AC-3
Format/Info                              : Audio Coding 3
Mode extension                           : CM (complete main)
Format settings, Endianness              : Big
Codec ID                                 : A_AC3
Duration                                 : 2h 32mn
Bit rate mode                            : Constant
Bit rate                                 : 448 Kbps
Channel count                            : 6 channels
Channel positions                        : Front: L C R, Side: L R, LFE
Sampling rate                            : 44.1 KHz
Bit depth                                : 16 bits
Compression mode                         : Lossy
Stream size                              : 488 MiB (4%)
Title                                    : 5.1 @ 448 kbps - багатоголосий закадровий Новий канал
Language                                 : Ukrainian
Default                                  : No
Forced                                   : No

Audio #2
ID                                       : 3
Format                                   : AC-3
Format/Info                              : Audio Coding 3
Mode extension                           : CM (complete main)
Format settings, Endianness              : Big
Codec ID                                 : A_AC3
Duration                                 : 2h 32mn
Bit rate mode                            : Constant
Bit rate                                 : 192 Kbps
Channel count                            : 2 channels
Channel positions                        : Front: L R
Sampling rate                            : 48.0 KHz
Bit depth                                : 16 bits
Compression mode                         : Lossy
Stream size                              : 209 MiB (2%)
Title                                    : 2.0 @ 192 kbps - багатоголосий закадровий 1+1
Language                                 : Ukrainian
Default                                  : No
Forced                                   : No

Audio #3
ID                                       : 4
Format                                   : AC-3
Format/Info                              : Audio Coding 3
Mode extension                           : CM (complete main)
Format settings, Endianness              : Big
Codec ID                                 : A_AC3
Duration                                 : 2h 32mn
Bit rate mode                            : Constant
Bit rate                                 : 192 Kbps
Channel count                            : 2 channels
Channel positions                        : Front: L R
Sampling rate                            : 48.0 KHz
Bit depth                                : 16 bits
Compression mode                         : Lossy
Stream size                              : 209 MiB (2%)
Title                                    : 2.0 @ 192 kbps - багатоголосий закадровий Новий канал
Language                                 : Ukrainian
Default                                  : Yes
Forced                                   : No

Audio #4
ID                                       : 5
Format                                   :
Format/Info                              : Digital Theater Systems
Mode                                     : 16
Format settings, Endianness              : Big
Codec ID                                 : A_DTS
Duration                                 : 2h 32mn
Bit rate mode                            : Constant
Bit rate                                 : 1 510 Kbps
Channel count                            : 6 channels
Channel positions                        : Front: L C R, Side: L R, LFE
Sampling rate                            : 48.0 KHz
Bit depth                                : 24 bits
Compression mode                         : Lossy
Stream size                              : 1.61 GiB (12%)
Title                                    : 5.1 @ 1536 kbps
Language                                 : English
Default                                  : No
Forced                                   : No

Text #1
ID                                       : 6
Format                                   : UTF-8
Codec ID                                 : S_TEXT/UTF8
Codec ID/Info                            : UTF-8 Plain Text
Language                                 : Ukrainian
Default                                  : No
Forced                                   : No

Text #2
ID                                       : 7
Format                                   : UTF-8
Codec ID                                 : S_TEXT/UTF8
Codec ID/Info                            : UTF-8 Plain Text
Language                                 : English
Default                                  : No
Forced                                   : No

Menu
00:00:00.000                             : en:Doorstep Delivery
00:04:05.411                             : en:Vanishing Glass
00:08:11.157                             : en:Letters From No One
00:12:17.403                             : en:Keeper of the Keys
00:18:25.270                             : en:Diagon Alley
00:21:43.635                             : en:Gringotts
00:24:41.646                             : en:Ollivanders
00:28:49.561                             : en:The Boy Who Lived
00:31:05.196                             : en:Platform 9 3/4
00:34:05.543                             : en:Ron and Hermione
00:37:49.600                             : en:Welcome to Hogwarts
00:41:29.487                             : en:Sorting Hat
00:46:13.437                             : en:Nick and Other Residents
00:50:29.026                             : en:Potions and Parcels
00:55:04.301                             : en:New Seeker
01:00:55.652                             : en:Three-Headed Sentinel
01:03:43.986                             : en:Facts and Feathers
01:07:48.230                             : en:Mountain Troll
01:13:49.258                             : en:Quidditch
01:20:17.979                             : en:Interference Overcome
01:23:54.529                             : en:Christmas Gift
01:28:32.473                             : en:Cloaked in Darkness
01:31:42.497                             : en:Mirror of Erised
01:36:42.630                             : en:Norbert
01:42:34.815                             : en:Forbidden Forest
01:49:05.038                             : en:Up to Something
01:53:21.628                             : en:Through the Trapdoor
01:58:09.749                             : en:Wizards' Chess
02:03:44.750                             : en:Sacrifice Play
02:06:56.108                             : en:Man with Two Faces
02:10:55.347                             : en:Magic Touch
02:14:18.884                             : en:Mark of Love
02:17:29.574                             : en:House Cup Winner
02:21:44.662                             : en:Not Really Going Home
02:24:10.808                             : en:Credits


Скріншоти:




Джерело: &



Інші частини Гаррі Поттера 1080p:
Гаррі Поттер і філософський камінь / Harry Potter and the Sorcerer's Stone (2001) 1080p 2xUkr/Eng | Sub Ukr/Eng
Гаррі Поттер і філософський камінь (розширена версія) / Harry Potter (extended version) / (2001) 1080p Ukr/Eng | Sub Ukr
Гаррі Поттер і таємна кімната / Harry Potter and the Chamber of Secrets (2002) 1080p 2xUkr/Eng | Sub Ukr/Eng
Гаррі Поттер і в'язень Азкабану / Harry Potter and the Prisoner of Azkaban (2004) 1080p 3xUkr/Eng | Sub Ukr/Eng
Гаррі Поттер і келих вогню / Harry Potter and the Goblet of Fire (2005) 1080p 2xUkr/Eng | Sub Ukr/Eng
Гаррі Поттер та Орден Фенікса / Harry Potter and the Order of the Phoenix (2007) 1080p Ukr/Eng | Sub Ukr/Eng
Гаррі Поттер та напівкровний принц / Harry Potter and the Half-Blood Prince (2009) 1080p 2xUkr/Eng | Sub Ukr/Eng
Гаррі Поттер та Смертельні реліквії: Частина 1 / Harry Potter and the Deathly Hallows: Part 1 (2010) 1080p Ukr/Eng
Гаррі Поттер та Смертельні Реліквії. Частина друга / Harry Potter and the Deathly Hallows: Part 2 (2011) 1080p Ukr/Eng


Срібний реліз (на рейтинг впливає 50% завантаженого)
 Трекер:    Зареєстрований   

Завантажити / скачати фільм українською



відео для новачків



 Зареєстрований:   2013-12-07 18:26
 Розмір:   13.17 GB 
 Оцінка фільму:   9.3/10 (Голосів: 39)
   
Stepan2009 
VIP


З нами з: 18.09.10
Востаннє: 09.12.16
Повідомлень: 322

2013-12-07 18:31  
Перша і друга частина Гарі найкращі

Додано через 1 хвилину 25 секунд:

Міг би уже бодай один канал зробити дубляж.

elims93 
Відео Гуртом - субтитрування
Відео Гуртом - субтитрування


З нами з: 17.04.11
Востаннє: 30.11.16
Повідомлень: 3

2013-12-29 20:28  
Роздача буде? о_0
leroykendall 
Модератор HD


З нами з: 03.01.11
Востаннє: 20.11.16
Повідомлень: 749

2013-12-29 23:39  
elims93
Залишайтесь на завантаженні - незабаром піддам газу.

sibstalker 
Новенький


З нами з: 12.04.14
Востаннє: 18.11.16
Повідомлень: 1

2014-09-24 21:48  
Жорстачайше дякую!)) Ось це у вас підбірка!!! Те саме, що я шукав. Буду на роздачі скільки зможу.
IvanKamLviv 
Новенький


З нами з: 30.08.14
Востаннє: 26.11.16
Повідомлень: 1

2015-08-09 19:28  
щось роздача дуже слабенька. теж залишу на довгий час
[email protected] 
Відео Гуртом - підтримка та поширення
Відео Гуртом - підтримка та поширення


З нами з: 16.06.12
Востаннє: 11.12.16
Повідомлень: 866

2015-10-21 12:29  
Субтитри можна скачати до першої частини окремо?
Ваш часовий пояс: GMT + 2 Години

Нова тема   Відповісти