Завантажити та скачати торренти українською


Останній будинок ліворуч / The Last House on the Left [Unrated version] (2009) 720p Ukr/Eng | Sub Eng

Нові коментарі

Нова тема   Відповісти
Автор Повідомлення
braveboy 
Відео Гуртом - команда HD
Відео Гуртом - команда HD


З нами з: 15.06.10
Востаннє: 29.10.16
Повідомлень: 958

2013-12-07 06:36  

Останній будинок ліворуч / The Last House on the Left [Unrated version] (2009)
720p Ukr/Eng | Sub Eng


Останній будинок ліворуч / The Last House on the Left [Unrated version] (2009) 720p Ukr/Eng | Sub Eng


Жанр: кримінальний, драма, трилер
Країна: США


Кінокомпанія: Rogue Pictures, Scion Films, Midnight Entertainment
Режисер: Денніс Іліадіс
Актори: Гаррет Діллахант, Майкл Боуен, Джошуа Кокс, Рікі Ліндхоум, Аарон Пол, Сара Пекстон, Моніка Поттер, Тоні Голдуїн, Марта МакАйсак, Спенсер Тріт Клар

Сюжет:
Як зазвичай, влітку, сімейство поїхало в літній будинок на березі озера Коллінвуд. Мері, випросивши у батьків машину для катання, відправляється на ній в магазин у гості, де працює її подруга і де знайомиться з молодим хлопцем. І вже втрьох вони намагалися відтягнутися з косяком і просто ближче познайомитися. Але не тут то було, в будинку де вони відпочивали, несподівано з'являється батько хлопчини - побіжний злочинець зі своєю зграєю. І далі події розвиваються в драматичному сюжеті, зачіпаючи і інтелігентну сім'ю Мері ....



Тривалість: 01:53:37
Якість: 720p
Відео:
кодек:
розмір кадру: 1280 x 692
бітрейт: 4478 кб/с

Аудіо # 1:
мова: українська
переклад: багатоголосий закадровий
кодек: 5.1
бітрейт: 384 кб/с

Аудіо # 2:
мова: англійська
переклад: оригінал
кодек: 5.1
бітрейт: 640 кб/с

Джерело озвучення:


Субтитри:
мова: англійська
тип: програмні (м'які)
формат: *.srt
720p by braveboy
MediaInfo
Video
ID : 1
Format : AVC
Format/Info : Advanced Video Codec
Format profile : [email protected]
Format settings, CABAC : Yes
Format settings, ReFrames : 8 frames
Codec ID : V_MPEG4/ISO/AVC
Duration : 1h 53mn
Bit rate : 4 478 Kbps
Width : 1 280 pixels
Height : 692 pixels
Display aspect ratio : 1.85:1
Frame rate mode : Constant
Frame rate : 23.976 fps
Color space : YUV
Chroma subsampling : 4:2:0
Bit depth : 8 bits
Scan type : Progressive
Bits/(Pixel*Frame) : 0.211
Stream size : 3.46 GiB (79%)
Title : The Last House on the Left [Unrated version] (2009) 720p by braveboy
Writing library : core 129 r2245 bc13772
Encoding settings : cabac=1 / ref=8 / deblock=1:-3:-3 / analyse=0x3:0x133 / me=umh / subme=9 / psy=1 / psy_rd=0.80:0.00 / mixed_ref=1 / me_range=24 / chroma_me=1 / trellis=1 / 8x8dct=1 / cqm=0 / deadzone=21,11 / fast_pskip=0 / chroma_qp_offset=-2 / threads=6 / lookahead_threads=1 / sliced_threads=0 / nr=0 / decimate=0 / interlaced=0 / bluray_compat=0 / constrained_intra=0 / bframes=6 / b_pyramid=2 / b_adapt=2 / b_bias=0 / direct=1 / weightb=1 / open_gop=0 / weightp=2 / keyint=240 / keyint_min=23 / scenecut=40 / intra_refresh=0 / rc=2pass / mbtree=0 / bitrate=4478 / ratetol=1.0 / qcomp=0.60 / qpmin=10 / qpmax=51 / qpstep=4 / cplxblur=20.0 / qblur=0.5 / ip_ratio=1.40 / pb_ratio=1.30 / aq=1:1.00
Default : Yes
Forced : No

Audio #1
ID : 2
Format : AC-3
Format/Info : Audio Coding 3
Mode extension : CM (complete main)
Format settings, Endianness : Big
Codec ID : A_AC3
Duration : 1h 53mn
Bit rate mode : Constant
Bit rate : 384 Kbps
Channel(s) : 6 channels
Channel positions : Front: L C R, Side: L R, LFE
Sampling rate : 48.0 KHz
Bit depth : 16 bits
Compression mode : Lossy
Stream size : 312 MiB (7%)
Title : 5.1 @ 448 kbps
Language : Ukrainian
Default : Yes
Forced : No

Audio #2
ID : 3
Format : AC-3
Format/Info : Audio Coding 3
Mode extension : CM (complete main)
Format settings, Endianness : Big
Codec ID : A_AC3
Duration : 1h 53mn
Bit rate mode : Constant
Bit rate : 640 Kbps
Channel(s) : 6 channels
Channel positions : Front: L C R, Side: L R, LFE
Sampling rate : 48.0 KHz
Bit depth : 16 bits
Compression mode : Lossy
Stream size : 520 MiB (12%)
Title : 5.1 @ 640 kbps
Language : English
Default : No
Forced : No

Text
ID : 4
Format : UTF-8
Codec ID : S_TEXT/UTF8
Codec ID/Info : UTF-8 Plain Text
Title : Full
Language : English
Default : No
Forced : No

Menu
00:00:00.000 : en:00:00:00.000
00:05:21.988 : en:00:05:21.988
00:10:58.366 : en:00:10:58.366
00:17:06.776 : en:00:17:06.776
00:23:27.323 : en:00:23:27.323
00:29:59.673 : en:00:29:59.673
00:34:44.749 : en:00:34:44.749
00:39:27.448 : en:00:39:27.448
00:47:22.506 : en:00:47:22.506
00:51:20.411 : en:00:51:20.411
00:59:10.297 : en:00:59:10.297
01:03:41.943 : en:01:03:41.943
01:07:21.329 : en:01:07:21.329
01:13:49.425 : en:01:13:49.425
01:19:17.503 : en:01:19:17.503
01:25:46.475 : en:01:25:46.475
01:30:08.570 : en:01:30:08.570
01:34:17.360 : en:01:34:17.360
01:39:20.329 : en:01:39:20.329
01:44:31.182 : en:01:44:31.182
Скріншоти

Особиста оцінка: 9 - давно не бачив настільки якісне кіно


 Трекер:    Зареєстрований   

Завантажити / скачати фільм українською



відео для новачків



 Зареєстрований:   2013-12-07 06:36
 Розмір:   4.36 GB 
 Оцінка фільму:   9.8/10 (Голосів: 9)
   
Maters 
VIP


З нами з: 27.03.12
Востаннє: 04.12.16
Повідомлень: 1156

2015-11-09 19:42  
Фільм доволі непоганий, але кінцівка тупа
Ваш часовий пояс: GMT + 2 Години

Нова тема   Відповісти