Завантажити та скачати торренти українською


Іво Бобул - Емігрантка (2002) [APE] | Pop

Нові коментарі

Нова тема   Відповісти
Автор Повідомлення
civ 
VIP


З нами з: 16.02.11
Востаннє: 10.12.16
Повідомлень: 429

2013-12-05 22:16  
Іво Бобул - Емігрантка (2002) [APE] | Pop

Стиль: Pop
Країна, місто: Україна, с. Тереблене (Глибоцького району Чернівецької області)
Видавець: Студія 6 Секунд
Виконавці: Іван Васильович Бобул, Лілія Сандулесу (13, 14)
Пісні:
    1. Емігрантка (4:52)
    2. Зупинись щастя мить (4:50)
    3. Господи, прости (4:49)
    4. Жовтий лист (4:11)
    5. Батько і мати (4:15)
    6. Україно (4:21)
    7. Скажу вам, дочки і сини (4:25)
    8. Покохай мене, гуцулко (4:12)
    9. На Україну повернусь (5:24)
    10. Душі криниця (4:41)
    11. Одна єдина (4:10)
    12. Помирає скрипаль (4:00)
    13. А липи цвітуть (3:59)
    14. Спалені мости (4:09)

Тривалість: 01:02:17
Мова: українська
Аудіо-кодек: APE
Бітрейт: 819 кб/с
Джерело: власний ріп
Тип ріпу: image + cue + обкладинки
EAC Log

Exact Audio Copy V1.0 beta 3 from 29. August 2011

EAC extraction logfile from 5. December 2013, 21:54

Іво Бобул / Емігрантка

Used drive : MATSHITADVD-RAM UJ8C1 Adapter: 1 ID: 0

Read mode : Secure
Utilize accurate stream : Yes
Defeat audio cache : Yes
Make use of C2 pointers : No

Read offset correction : 6
Overread into Lead-In and Lead-Out : No
Fill up missing offset samples with silence : Yes
Delete leading and trailing silent blocks : No
Null samples used in CRC calculations : Yes
Used interface : Native Win32 interface for Win NT & 2000

Used output format : Internal WAV Routines
Sample format : 44.100 Hz; 16 Bit; Stereo

TOC of the extracted CD

Track | Start | Length | Start sector | End sector
---------------------------------------------------------
1 | 0:00.00 | 4:51.46 | 0 | 21870
2 | 4:51.46 | 4:49.72 | 21871 | 43617
3 | 9:41.43 | 4:48.38 | 43618 | 65255
4 | 14:30.06 | 4:11.31 | 65256 | 84111
5 | 18:41.37 | 4:14.59 | 84112 | 103220
6 | 22:56.21 | 4:20.59 | 103221 | 122779
7 | 27:17.05 | 4:25.04 | 122780 | 142658
8 | 31:42.09 | 4:12.04 | 142659 | 161562
9 | 35:54.13 | 5:24.05 | 161563 | 185867
10 | 41:18.18 | 4:41.28 | 185868 | 206970
11 | 45:59.46 | 4:09.56 | 206971 | 225701
12 | 50:09.27 | 3:59.48 | 225702 | 243674
13 | 54:09.00 | 3:59.19 | 243675 | 261618
14 | 58:08.19 | 4:08.72 | 261619 | 280290

Range status and errors

Selected range

Filename C:\Music\Іво Бобул - Емігрантка (2002)\Іво Бобул - Емігрантка.wav

Peak level 98.0 %
Extraction speed 3.9 X
Range quality 99.9 %
Copy CRC 44B0BA5B
Copy OK

No errors occurred

AccurateRip summary

Track 1 not present in database
Track 2 not present in database
Track 3 not present in database
Track 4 not present in database
Track 5 not present in database
Track 6 not present in database
Track 7 not present in database
Track 8 not present in database
Track 9 not present in database
Track 10 not present in database
Track 11 not present in database
Track 12 not present in database
Track 13 not present in database
Track 14 not present in database

None of the tracks are present in the AccurateRip database

End of status report
Audiochecker

fooCDtect - foobar2000 + auCDtect, baralgin.

auCDtect: CD records authenticity detector, version 0.8.2
Copyright (c) 2004 Oleg Berngardt. All rights reserved.
Copyright (c) 2004 Alexander Djourik. All rights reserved.

mode: 0

===========================================
Track: 01. Емігрантка
Quality: MPEG 95%
===========================================
Track: 02. Зупинись, щастя мить
Quality: MPEG 95%
===========================================
Track: 03. Господи, прости
Quality: CDDA 99%
===========================================
Track: 04. Жовтий лист
Quality: MPEG 95%
===========================================
Track: 05. Батько і мати
Quality: CDDA 100%
===========================================
Track: 06. Україно
Quality: CDDA 100%
===========================================
Track: 07. Скажу вам, дочки і сини
Quality: CDDA 100%
===========================================
Track: 08. Покохай мене, гуцулко
Quality: MPEG 95%
===========================================
Track: 09. На Україну повернусь
Quality: MPEG 95%
===========================================
Track: 10. Душі криниця
Quality: CDDA 99%
===========================================
Track: 11. Одна єдина
Quality: CDDA 100%
===========================================
Track: 12. Помирає скрипаль
Quality: MPEG 95%
===========================================
Track: 13. А липи цвітуть
Quality: MPEG 95%
===========================================
Track: 14. Спалені мости
Quality: MPEG 95%
===========================================
Додаткова інформація:
Отже, перед Вами - третій з обіцяних нами альбомів Іво Бобула, який вже багато років співає про кохання, але не перестає знаходити та розповідати нам про нові відтінки, глибини, грані цього почуття. Ви почуєте тут пісні дорослого, зрілого чоловіка, життєвий шлях якого не був легким, але який не розчарувався у найціннішому з можливих для справжнього чоловіка дарунків на цій землі - коханні до жінки. І не важливо, у якій іпостасі постає перед нами жінка - дружини, дочки, матері, коханої або батьківщини. За всіма цими обличчями завжди стоїть лише одна жінка, ім’я якої, сподіваюся, відомо кожному - це Любов. Їй приносить він свої пісні-молитви, і запрошує нас молитися з ним разом : "Господи, дай нам любові!" Молімося, дивлячись друг другові в очі - і почують нас, і почуємо ми себе, і воздасться нам.

Умка




Якщо Ви справді бажаєте підтримати українське - після прослуховування, якщо музика вам сподобалась, придбайте ліцензійний диск. Підтримаймо вітчизняних виконавців!


Срібний реліз (на рейтинг впливає 50% завантаженого)
 Трекер:    Зареєстрований   

Завантажити / скачати українську музику



відео для новачків



 Зареєстрований:   2013-12-05 22:16
 Розмір:   375 MB 
 Оцінка музики:   10/10 (Голосів: 5)
   
Ваш часовий пояс: GMT + 2 Години

Нова тема   Відповісти