Завантажити та скачати торренти українською


Ірина Зінковська - Ніжна пісня… (2009) [APE] | Pop

Нові коментарі

Нова тема   Відповісти
Автор Повідомлення
civ 
VIP


З нами з: 16.02.11
Востаннє: 05.12.16
Повідомлень: 429

2013-12-05 21:47  
Ірина Зінковська - Ніжна пісня… (2009) [APE] | Pop

Ірина Зінковська - Ніжна пісня… (2009) [APE] | Pop


Стиль: Pop
Країна, місто: Україна, Снятин
Сайти: Офіційний сайт
Видавець: Ліда
Пісні:
    01. Мама і тато
    02. Два острови
    03. Чи ти не знаєш, де я мешкаю
    04. Сон
    05. Сидить дівча
    06. А кохання тільки починається
    07. Повертайся в Україну
    08. Два перстені
    09. Я тебе шукаю
    10. Мамина хатина
    11. Зачаруй
    12. Подаруй мені скрипку
    13. Не забувай
    14. Майор
    15. Venus
    16. Пісня осені
    17. Рідна Україна
    18. Гиля, гиля, сірі гіси
    19. Допоки віримо

Тривалість: 01:07:15
Мова: українська, англійська (15)
Аудіо-кодек: APE
Бітрейт: 990 кб/с
Джерело: власний ріп
Тип ріпу: image + cue + обкладинки
EAC Log

Exact Audio Copy V1.0 beta 3 from 29. August 2011

EAC extraction logfile from 5. December 2013, 21:35

Ірина Зінковська / Ніжна пісня…

Used drive : MATSHITADVD-RAM UJ8C1 Adapter: 1 ID: 0

Read mode : Secure
Utilize accurate stream : Yes
Defeat audio cache : Yes
Make use of C2 pointers : No

Read offset correction : 6
Overread into Lead-In and Lead-Out : No
Fill up missing offset samples with silence : Yes
Delete leading and trailing silent blocks : No
Null samples used in CRC calculations : Yes
Used interface : Native Win32 interface for Win NT & 2000

Used output format : Internal WAV Routines
Sample format : 44.100 Hz; 16 Bit; Stereo

TOC of the extracted CD

Track | Start | Length | Start sector | End sector
---------------------------------------------------------
1 | 0:00.00 | 5:05.50 | 0 | 22924
2 | 5:05.50 | 3:12.58 | 22925 | 37382
3 | 8:18.33 | 3:11.03 | 37383 | 51710
4 | 11:29.36 | 3:50.11 | 51711 | 68971
5 | 15:19.47 | 3:06.42 | 68972 | 82963
6 | 18:26.14 | 4:05.24 | 82964 | 101362
7 | 22:31.38 | 4:20.05 | 101363 | 120867
8 | 26:51.43 | 3:36.27 | 120868 | 137094
9 | 30:27.70 | 3:08.39 | 137095 | 151233
10 | 33:36.34 | 3:01.21 | 151234 | 164829
11 | 36:37.55 | 4:06.67 | 164830 | 183346
12 | 40:44.47 | 4:05.05 | 183347 | 201726
13 | 44:49.52 | 3:45.48 | 201727 | 218649
14 | 48:35.25 | 2:51.23 | 218650 | 231497
15 | 51:26.48 | 3:20.51 | 231498 | 246548
16 | 54:47.24 | 4:48.25 | 246549 | 268173
17 | 59:35.49 | 3:07.29 | 268174 | 282227
18 | 62:43.03 | 4:32.33 | 282228 | 302660
19 | 67:15.36 | 3:47.55 | 302661 | 319740

Range status and errors

Selected range

Filename C:\Music\Ірина Зінковська - Ніжна пісня (2009)\Ірина Зінковська - Ніжна пісня.wav

Peak level 100.0 %
Extraction speed 4.8 X
Range quality 99.9 %
Copy CRC B3399216
Copy OK

No errors occurred

AccurateRip summary

Track 1 not present in database
Track 2 not present in database
Track 3 not present in database
Track 4 not present in database
Track 5 not present in database
Track 6 not present in database
Track 7 not present in database
Track 8 not present in database
Track 9 not present in database
Track 10 not present in database
Track 11 not present in database
Track 12 not present in database
Track 13 not present in database
Track 14 not present in database
Track 15 not present in database
Track 16 not present in database
Track 17 not present in database
Track 18 not present in database
Track 19 not present in database

None of the tracks are present in the AccurateRip database

End of status report
Audiochecker

fooCDtect - foobar2000 + auCDtect, baralgin.

auCDtect: CD records authenticity detector, version 0.8.2
Copyright (c) 2004 Oleg Berngardt. All rights reserved.
Copyright (c) 2004 Alexander Djourik. All rights reserved.

mode: 0

===========================================
Track: 01. Мама і тато
Quality: CDDA 100%
===========================================
Track: 02. Два острови
Quality: CDDA 100%
===========================================
Track: 03. Чи ти не знаєш, де я мешкаю
Quality: CDDA 100%
===========================================
Track: 04. Сон
Quality: CDDA 100%
===========================================
Track: 05. Сидить дівча
Quality: CDDA 100%
===========================================
Track: 06. А кохання тільки починається
Quality: CDDA 100%
===========================================
Track: 07. Повертайся в Україну
Quality: CDDA 100%
===========================================
Track: 08. Два перстені
Quality: CDDA 100%
===========================================
Track: 09. Я тебе шукаю
Quality: CDDA 100%
===========================================
Track: 10. Мамина хатина
Quality: CDDA 100%
===========================================
Track: 11. Зачаруй
Quality: CDDA 100%
===========================================
Track: 12. Подаруй мені скрипку
Quality: CDDA 100%
===========================================
Track: 13. Не забувай
Quality: CDDA 100%
===========================================
Track: 14. Майор
Quality: CDDA 100%
===========================================
Track: 15. Venus
Quality: CDDA 100%
===========================================
Track: 16. Пісня осені
Quality: CDDA 100%
===========================================
Track: 17. Рідна Україна
Quality: CDDA 100%
===========================================
Track: 18. Гиля, гиля, сірі гіси
Quality: CDDA 100%
===========================================
Track: 19. Допоки віримо
Quality: CDDA 100%
===========================================
Додаткова інформація:
Раніше ми вже представляли у себе альбом "Звуки" Ірини Зінковської – і, треба сказати, цей диск викликав помітну цікавість наших відвідувачів. Тож тепер – пропонуємо Вашій увазі одну з попередніх робіт співачки. Маємо зазначити: "Ніжна пісня", на відміну від "Звуків", більше тяжіє до естрадного жанру. З іншого боку – саме цей жанр відкрив широкі шляхи таким виконавцям, як Таїсія Повалій, Софія Ротару тощо. Тож, гадаємо, це не має нікого засмучувати. До того ж – знов-таки, цілком у рамках жанрової політики – на цьому альбомі можна почути кілька обробок українських народних пісень, що теж приємно. Зрештою, Ірина Зінковська має такий голос, з яким можна дуже впевнено почуватися у будь-якому жанрі – естрада, поп, джаз – гарний голос, що й казати. Аби було бажання – а в даному випадку воно явно є, інакше не було би стильової різниці між різними альбомами.

Умка




Якщо Ви справді бажаєте підтримати українське - після прослуховування, якщо музика вам сподобалась, придбайте ліцензійний диск. Підтримаймо вітчизняних виконавців!


Срібний реліз (на рейтинг впливає 50% завантаженого)
 Трекер:    Зареєстрований   

Завантажити / скачати українську музику



відео для новачків



 Зареєстрований:   2013-12-05 21:47
 Розмір:   509 MB 
 Оцінка музики:   9.3/10 (Голосів: 4)
   
Ваш часовий пояс: GMT + 2 Години

Нова тема   Відповісти