Завантажити та скачати торренти українською


Єва / Eva (2011) 720p Ukr/Spa | Sub Eng

Нові коментарі

Нова тема   Відповісти
Автор Повідомлення
leroykendall 
Модератор HD


З нами з: 03.01.11
Востаннє: 20.11.16
Повідомлень: 749

2013-12-05 10:15  
Єва / Eva (2011) 720p Ukr/Spa | Sub Eng

Єва / Eva (2011) 720p Ukr/Spa | Sub Eng

«Ви не можете запрограмувати те, що відчуваєте.»



Альтернативний постер
Єва / Eva (2011) 720p Ukr/Spa | Sub Eng


Жанр: драма, фентезі, науково-фантастичний
Країна: Іспанія






Кінокомпанія: Canal+ España, Canal+, Escándalo Films S.L.
Режисер: Кіке Майло (Kike Maíllo)
Актори: Даніель Брюль (Daniel Brühl), Марта Етура (Marta Etura), Алберто Амманн (Alberto Ammann), Клаудія Веґа (Claudia Vega), Анн Кановас (Anne Canovas), Луїс Гомар (Lluís Homar), Сара Роза Лосілла (Sara Rosa Losilla), Манел Дуесо (Manel Dueso), Она Касамікела (Ona Casamiquela), Пітер Вівес (Peter Vives), Жорді Діас (Jordi Díaz), Оскар Валсечі (Oscar Valsecchi), Барнет Саумелл (Bernat Saumell), Жуан Компавадал (Juan Campavadal), Гаріс Ґордон (Harris Gordon)

Сюжет:
Алекс, відомий інженер в сфері кібернетики, повертається в Санта-Ірину, щоб зайнятися незвичайним проектом для факультету Робототехніки свого університету - створенням робота-дитини. Протягом десяти років, поки його не було в місті, життя для його брата Девіда і дівчини Лани йшло своєю чергою: тепер вони живуть разом і у них є дочка Єва. Між Алексом і Євою відразу налагоджуються добрі відносини, і так виходить, що Єва найнесподіванішим чином змінює підхід Алекса до його розробок. Для них починається подорож, яка обіцяє інтригуючу кульмінацію.


Тривалість: 01:34:43
Якість: 720p (ріп від DON)
Відео:
кодек:
розмір кадру: 1280 x 544
бітрейт: 9363 кб/с

Аудіо # 1:
мова: українська
переклад: двоголосий закадровий
кодек: 2.0
бітрейт: 192 кб/с
Інформація про озвучення
Ролі озвучили:[b] [b]Максим Кондратюк і Наталя Романько-Кисельова

Фільм перекладено і озвучено на студії KWA Sound Production на замовлення Arthouse Traffic
Аудіо # 2:
мова: іспанська
переклад: оригінал
кодек: 5.1
бітрейт: 640 кб/с

Субтитри:
мова: англійська
тип: програмні (м'які)
формат: *.srt

Збережені оригінальні чаптери як на Blu-ray.
Офіційний трейлер
MediaInfo
Код:
General
Unique ID                                : 232008978565418101183327633423755791547 (0xAE8B4DCD9BB8D01CB4DDB07FD71E4CBB)
Complete name                            : V:\Eva (2011) [Ukr, Spa] 720p [Hurtom] by leroykendall.mkv
Format                                   : Matroska
Format version                           : Version 4 / Version 2
File size                                : 6.88 GiB
Duration                                 : 1h 34mn
Overall bit rate                         : 10.4 Mbps
Movie name                               : Eva (2011) [Ukr, Spa] 720p [Hurtom] by leroykendall
Encoded date                             : UTC 2013-12-04 20:59:39
Writing application                      : mkvmerge v6.2.0 ('Promised Land') built on Apr 28 2013 12:22:01
Writing library                          : libebml v1.3.0 + libmatroska v1.4.0

Video
ID                                       : 1
Format                                   : AVC
Format/Info                              : Advanced Video Codec
Format profile                           : [email protected]
Format settings, CABAC                   : Yes
Format settings, ReFrames                : 12 frames
Codec ID                                 : V_MPEG4/ISO/AVC
Duration                                 : 1h 34mn
Bit rate                                 : 9 363 Kbps
Width                                    : 1 280 pixels
Height                                   : 544 pixels
Display aspect ratio                     : 2.35:1
Frame rate mode                          : Constant
Frame rate                               : 24.000 fps
Color space                              : YUV
Chroma subsampling                       : 4:2:0
Bit depth                                : 8 bits
Scan type                                : Progressive
Bits/(Pixel*Frame)                       : 0.560
Stream size                              : 6.19 GiB (90%)
Title                                    : Eva (2011) 720p [DON]
Writing library                          : core 122 r2184 5c85e0a
Encoding settings                        : cabac=1 / ref=12 / deblock=1:-3:-3 / analyse=0x3:0x113 / me=tesa / subme=11 / psy=1 / psy_rd=0.95:0.05 / mixed_ref=1 / me_range=24 / chroma_me=1 / trellis=2 / 8x8dct=1 / cqm=0 / deadzone=21,11 / fast_pskip=0 / chroma_qp_offset=-3 / threads=12 / sliced_threads=0 / nr=0 / decimate=0 / interlaced=0 / bluray_compat=0 / constrained_intra=0 / bframes=7 / b_pyramid=2 / b_adapt=1 / b_bias=0 / direct=1 / weightb=1 / open_gop=0 / weightp=2 / keyint=250 / keyint_min=24 / scenecut=40 / intra_refresh=0 / rc=crf / mbtree=0 / crf=17.0 / qcomp=0.60 / qpmin=0 / qpmax=69 / qpstep=4 / ip_ratio=1.40 / pb_ratio=1.30 / aq=1:0.75
Language                                 : Spanish
Default                                  : Yes
Forced                                   : No

Audio #1
ID                                       : 2
Format                                   : AC-3
Format/Info                              : Audio Coding 3
Mode extension                           : CM (complete main)
Format settings, Endianness              : Big
Codec ID                                 : A_AC3
Duration                                 : 1h 34mn
Bit rate mode                            : Constant
Bit rate                                 : 192 Kbps
Channel count                            : 2 channels
Channel positions                        : Front: L R
Sampling rate                            : 48.0 KHz
Bit depth                                : 16 bits
Compression mode                         : Lossy
Stream size                              : 130 MiB (2%)
Title                                    : 2.0 @ 192 kbps - двоголосий закадровий {KWA Sound Production}
Language                                 : Ukrainian
Default                                  : Yes
Forced                                   : No

Audio #2
ID                                       : 3
Format                                   : AC-3
Format/Info                              : Audio Coding 3
Mode extension                           : CM (complete main)
Format settings, Endianness              : Big
Codec ID                                 : A_AC3
Duration                                 : 1h 34mn
Bit rate mode                            : Constant
Bit rate                                 : 640 Kbps
Channel count                            : 6 channels
Channel positions                        : Front: L C R, Side: L R, LFE
Sampling rate                            : 48.0 KHz
Bit depth                                : 16 bits
Compression mode                         : Lossy
Stream size                              : 434 MiB (6%)
Title                                    : 5.1 @ 640 kbps - original
Language                                 : Spanish
Default                                  : No
Forced                                   : No

Text
ID                                       : 4
Format                                   : UTF-8
Codec ID                                 : S_TEXT/UTF8
Codec ID/Info                            : UTF-8 Plain Text
Title                                    : full
Language                                 : English
Default                                  : No
Forced                                   : No

Menu
00:00:00.000                             : en:00:00:00.000
00:04:18.792                             : en:00:04:18.792
00:14:38.583                             : en:00:14:38.583
00:21:01.125                             : en:00:21:01.125
00:29:47.500                             : en:00:29:47.500
00:33:58.625                             : en:00:33:58.625
00:46:53.750                             : en:00:46:53.750
00:57:15.917                             : en:00:57:15.917
01:08:54.208                             : en:01:08:54.208
01:15:26.500                             : en:01:15:26.500
01:21:17.583                             : en:01:21:17.583
01:30:25.458                             : en:01:30:25.458
Скріншоти:






Подяки
karvai0 за український звук та еталонний реліз



Джерело:


 Трекер:    Зареєстрований   

Завантажити / скачати фільм українською



відео для новачків



 Зареєстрований:   2013-12-05 10:15
 Розмір:   6.88 GB 
 Оцінка фільму:   9.9/10 (Голосів: 9)
   
Інші релізи
   Єва / Eva (2011) Ukr/Esp | Sub Eng karvai0  6 / 3   1.7 GB   2013-03-10 14:02 
Ukrainian 
Новенький


З нами з: 17.10.08
Востаннє: 04.12.16
Повідомлень: 3

2013-12-05 23:26  
Класне кіно. Мені сподобалось.
Ваш часовий пояс: GMT + 2 Години

Нова тема   Відповісти