Завантажити та скачати торренти українською


Надія Шестак - Ностальгія (2000) [APE] | Pop

Нові коментарі

Нова тема   Відповісти
Автор Повідомлення
civ 
VIP


З нами з: 16.02.11
Востаннє: 07.12.16
Повідомлень: 429

2013-12-05 08:19  
Надія Шестак - Ностальгія (2000) [APE] | Pop

Надія Шестак - Ностальгія (2000) [APE] | Pop


Стиль: Pop
Країна, місто: Україна, Київ
Видавець: NAC
Пісні:
    01. Ностальгія
    02. Коханий
    03. Черемшина
    04. Сину, Ангел мій
    05. На станції чекання
    06. Я починаю все з початку
    07. Не промовляй даремно
    08. Жіночі сльози
    09. Розлука
    10. На водопаді
    11. Червона рута
    12. Це — моя земля

Тривалість: 00:50:16
Мова: українська
Аудіо-кодек: APE
Бітрейт: 785 кб/с
Джерело: власний ріп
Тип ріпу: image + cue + covers
EAC Log

Exact Audio Copy V1.0 beta 3 from 29. August 2011

EAC extraction logfile from 5. December 2013, 8:08

Надія Шестак / Ностальгія

Used drive : MATSHITADVD-RAM UJ8C1 Adapter: 1 ID: 0

Read mode : Secure
Utilize accurate stream : Yes
Defeat audio cache : Yes
Make use of C2 pointers : No

Read offset correction : 6
Overread into Lead-In and Lead-Out : No
Fill up missing offset samples with silence : Yes
Delete leading and trailing silent blocks : No
Null samples used in CRC calculations : Yes
Used interface : Native Win32 interface for Win NT & 2000

Used output format : Internal WAV Routines
Sample format : 44.100 Hz; 16 Bit; Stereo

TOC of the extracted CD

Track | Start | Length | Start sector | End sector
---------------------------------------------------------
1 | 0:00.01 | 4:12.58 | 1 | 18958
2 | 4:12.59 | 3:48.53 | 18959 | 36111
3 | 8:01.37 | 4:19.14 | 36112 | 55550
4 | 12:20.51 | 3:53.26 | 55551 | 73051
5 | 16:14.02 | 4:32.37 | 73052 | 93488
6 | 20:46.39 | 4:20.40 | 93489 | 113028
7 | 25:07.04 | 4:39.32 | 113029 | 133985
8 | 29:46.36 | 3:45.27 | 133986 | 150887
9 | 33:31.63 | 4:29.35 | 150888 | 171097
10 | 38:01.23 | 3:38.45 | 171098 | 187492
11 | 41:39.68 | 4:12.67 | 187493 | 206459
12 | 45:52.60 | 4:22.59 | 206460 | 226168

Range status and errors

Selected range

Filename C:\Music\Надія Шестак - Ностальгія (2000)\Надія Шестак - Ностальгія.wav

Peak level 100.0 %
Extraction speed 1.1 X
Range quality 99.8 %
Copy CRC B989A567
Copy OK

No errors occurred

AccurateRip summary

Track 1 not present in database
Track 2 not present in database
Track 3 not present in database
Track 4 not present in database
Track 5 not present in database
Track 6 not present in database
Track 7 not present in database
Track 8 not present in database
Track 9 not present in database
Track 10 not present in database
Track 11 not present in database
Track 12 not present in database

None of the tracks are present in the AccurateRip database

End of status report
Audiochecker

fooCDtect - foobar2000 + auCDtect, baralgin.

auCDtect: CD records authenticity detector, version 0.8.2
Copyright (c) 2004 Oleg Berngardt. All rights reserved.
Copyright (c) 2004 Alexander Djourik. All rights reserved.

mode: 0

===========================================
Track: 01. Ностальгія
Quality: MPEG 95%
===========================================
Track: 02. Коханий
Quality: MPEG 95%
===========================================
Track: 03. Черемшина
Quality: MPEG 95%
===========================================
Track: 04. Сину, Ангел мій
Quality: MPEG 95%
===========================================
Track: 05. На станції чекання
Quality: MPEG 95%
===========================================
Track: 06. Я починаю все з початку
Quality: MPEG 95%
===========================================
Track: 07. Не промовляй даремно
Quality: MPEG 95%
===========================================
Track: 08. Жіночі сльози
Quality: MPEG 95%
===========================================
Track: 09. Розлука
Quality: MPEG 95%
===========================================
Track: 10. На водопаді
Quality: MPEG 89%
===========================================
Track: 11. Червона рута
Quality: MPEG 95%
===========================================
Track: 12. Це — моя земля
Quality: MPEG 95%
===========================================
Додаткова інформація:
Збірка кращих пісень співачки.

Звіт авдіочекера засмучує. Але маємо, що маємо...



Якщо Ви справді бажаєте підтримати українське - після прослуховування, якщо музика вам сподобалась, придбайте ліцензійний диск. Підтримаймо вітчизняних виконавців!


Срібний реліз (на рейтинг впливає 50% завантаженого)
 Трекер:    Зареєстрований   

Завантажити / скачати українську музику



відео для новачків



 Зареєстрований:   2013-12-05 08:19
 Розмір:   287 MB 
 Оцінка музики:   10/10 (Голосів: 4)
   
ярий тверезенник 
VIP


З нами з: 29.01.12
Востаннє: 07.12.16
Повідомлень: 1594

2013-12-07 19:24  
Додав до колекції ваш альбом! Вже 4 альбоми в колекції.
Ваш часовий пояс: GMT + 2 Години

Нова тема   Відповісти