Завантажити та скачати торренти українською


Алла Кобилянська - Мамина сорочка (2005) [APE] | Pop

Нові коментарі

Нова тема   Відповісти
Автор Повідомлення
civ 
VIP


З нами з: 16.02.11
Востаннє: 09.12.16
Повідомлень: 429

2013-12-05 00:11  
Алла Кобилянська - Мамина сорочка (2005) [APE] | Pop

Стиль: Pop
Країна, місто: Україна, Одеса
Видавець: Студія 6 секунд
Пісні:
    01. Мамина сорочка
    02. Пробач мені
    03. Любисток долі
    04. Вернись із спогадів
    05. Розірваний шлюб
    06. Із голосу скрипки
    07. Люби мене
    08. А де мій тато?
    09. Гарем
    10. Не люби
    11. Несу свій хрест
    12. Матіоли
    13. Прощання мить
    14. Зорепад

Тривалість: 00:56:20
Мова: українська
Аудіо-кодек: APE
Бітрейт: 872 кб/с
Джерело: власний ріп
Тип ріпу: image + cue + covers
EAC Log

Exact Audio Copy V1.0 beta 3 from 29. August 2011

EAC extraction logfile from 4. December 2013, 23:55

Алла Кобилянська / Мамина сорочка

Used drive : MATSHITADVD-RAM UJ8C1 Adapter: 1 ID: 0

Read mode : Secure
Utilize accurate stream : Yes
Defeat audio cache : Yes
Make use of C2 pointers : No

Read offset correction : 6
Overread into Lead-In and Lead-Out : No
Fill up missing offset samples with silence : Yes
Delete leading and trailing silent blocks : No
Null samples used in CRC calculations : Yes
Used interface : Native Win32 interface for Win NT & 2000

Used output format : Internal WAV Routines
Sample format : 44.100 Hz; 16 Bit; Stereo

TOC of the extracted CD

Track | Start | Length | Start sector | End sector
---------------------------------------------------------
1 | 0:00.00 | 4:35.27 | 0 | 20651
2 | 4:35.27 | 3:56.34 | 20652 | 38385
3 | 8:31.61 | 3:49.50 | 38386 | 55610
4 | 12:21.36 | 3:39.64 | 55611 | 72099
5 | 16:01.25 | 4:07.45 | 72100 | 90669
6 | 20:08.70 | 3:53.53 | 90670 | 108197
7 | 24:02.48 | 3:47.24 | 108198 | 125246
8 | 27:49.72 | 4:23.15 | 125247 | 144986
9 | 32:13.12 | 3:13.05 | 144987 | 159466
10 | 35:26.17 | 3:49.74 | 159467 | 176715
11 | 39:16.16 | 4:46.64 | 176716 | 198229
12 | 44:03.05 | 3:54.36 | 198230 | 215815
13 | 47:57.41 | 4:32.60 | 215816 | 236275
14 | 52:30.26 | 3:50.09 | 236276 | 253534

Range status and errors

Selected range

Filename C:\Music\Алла Кобилянська - Мамина сорочка (2005)\Алла Кобилянська - Мамина сорочка.wav

Peak level 100.0 %
Extraction speed 4.6 X
Range quality 100.0 %
Copy CRC 2207B11A
Copy OK

No errors occurred

AccurateRip summary

Track 1 not present in database
Track 2 not present in database
Track 3 not present in database
Track 4 not present in database
Track 5 not present in database
Track 6 not present in database
Track 7 not present in database
Track 8 not present in database
Track 9 not present in database
Track 10 not present in database
Track 11 not present in database
Track 12 not present in database
Track 13 not present in database
Track 14 not present in database

None of the tracks are present in the AccurateRip database

End of status report
Audiochecker

fooCDtect - foobar2000 + auCDtect, baralgin.

auCDtect: CD records authenticity detector, version 0.8.2
Copyright (c) 2004 Oleg Berngardt. All rights reserved.
Copyright (c) 2004 Alexander Djourik. All rights reserved.

mode: 0

===========================================
Track: 01. Мамина сорочка
Quality: CDDA 76%
===========================================
Track: 02. Пробач мені
Quality: CDDA 100%
===========================================
Track: 03. Любисток долі
Quality: MPEG 95%
===========================================
Track: 04. Вернись із спогадів
Quality: MPEG 95%
===========================================
Track: 05. Розірваний шлюб
Quality: MPEG 95%
===========================================
Track: 06. Із голосу скрипки
Quality: MPEG 95%
===========================================
Track: 07. Люби мене
Quality: MPEG 95%
===========================================
Track: 08. А де мій тато
Quality: CDDA 100%
===========================================
Track: 09. Гарем
Quality: MPEG 95%
===========================================
Track: 10. Не люби
Quality: CDDA 100%
===========================================
Track: 11. Несу свій хрест
Quality: MPEG 95%
===========================================
Track: 12. Матіоли
Quality: MPEG 95%
===========================================
Track: 13. Прощання мить
Quality: MPEG 95%
===========================================
Track: 14. Зорепад
Quality: MPEG 95%
===========================================
Додаткова інформація:
Алла Кобилянська народилась 6 серпня 1963 року в місті Одеса. В 1983 році закінчила музичний відділ педагогічного училища міста Коломия Іва-Франківської області.Лауреат багатьох фестивалів та конкурсів (ім. Володимира Івасюка(1995р.), "Пісенний вернісаж"(1996р.,1997р.),"Боромля"(1995р.) В 1998 році нагороджена званням Заслуженої артистки України.

Співпрацює з композиторами: Олександр Злотник, Мар'ян Гаденко, Остап Гавриш, Володимир Будейчук та поетами: Степан Галябарда, Вадим Крищенко та ін. Алла Кобилянська - засновник дитячого фестивалю естрадного мистецтва "Зорепад", який проходить в місті Коломия Івано-Франківської області.Одною з кращих пісень є пісня "Мамина сорочка" ( автор музики і слів Наталія Май), а також пісня "Зорепад" (муз. М.Гаденка,сл.М.Сингаївського)


Також на Толоці:
Цей альбом в MP3


Якщо Ви справді бажаєте підтримати українське - після прослуховування, якщо музика вам сподобалась, придбайте ліцензійний диск. Підтримаймо вітчизняних виконавців!


Срібний реліз (на рейтинг впливає 50% завантаженого)
 Трекер:    Зареєстрований   

Завантажити / скачати українську музику



відео для новачків



 Зареєстрований:   2013-12-05 00:11
 Розмір:   355 MB 
 Оцінка музики:   10/10 (Голосів: 3)
   
Ваш часовий пояс: GMT + 2 Години

Нова тема   Відповісти