Планета динозаврів (6 серій) / Planet Dinosaur (6 episodes) (2011) Ukr/Eng

Нові коментарі

Нова тема   Відповісти
Автор Повідомлення
Кіндрат Книш 
VIP


З нами з: 13.02.13
Востаннє: 21.01.17
Повідомлень: 721

2013-11-30 12:52  
Планета динозаврів (6 серій) / Planet Dinosaur (6 episodes) (2011) Ukr/Eng

Планета динозаврів (6 серій) / Planet Dinosaur (6 episodes) (2011) Ukr/Eng


Жанр: документальний
Країна: Великобританія


Виробництво: BBC, Jellyfish Pictures
Режисери: Найджел Патерсон, Том Брасс
Оповідач: Джон Герт

Сюжет:
"Планета динозаврів" - це шестисерійний документальний фільм виробництва BBC, який є першим серйозним проектом телеканалу з часу всесвітньовідомих "Прогулянок з динозаврами". У телесеріалі приділено увагу понад 50 видам доісторичних тварин, які були детально відтворені за допомогою найсучасніших комп'ютерних технологій. В основному, сюжет фільму висвітлює останні археологічні відкриття, зроблені вже після виходу "Прогулянок з динозаврами".


Тривалість серії: ~29:00 (загалом серій: 6)
Перелік серій
1. Lost World / Загублений світ
2. Feathered Dragons / Пернаті дракони
3. Last Killers / Останні вбивці
4. Fight for Life / Боротьба за життя
5. New Giants / Нові велетні
6. The Great Survivors / Ті, хто вижили
Якість:
Відео:
кодек:
розмір кадру: 720х400
бітрейт: 2000 кб/с

Аудіо # 1:
мова: українська
переклад: одноголосий закадровий
кодек: 2.0
бітрейт: 192 кб/с

Аудіо # 2:
мова: англійська
переклад: оригінал
кодек: 2.0
бітрейт: 192 кб/с

Джерело озвучення:
Звіт MediaInfo
General
Complete name : E:\!!!na rozdachu\Planet Dinosaur (2011)\Planet Dinosaur - Episode 1.avi
Format : AVI
Format/Info : Audio Video Interleave
File size : 484 MiB
Duration : 28mn 15s
Overall bit rate : 2 396 Kbps
Writing application : VirtualDubMod 1.5.10.2 (build 2540/release)
Writing library : VirtualDubMod build 2540/release

Video
ID : 0
Format : MPEG-4 Visual
Format profile : Advanced [email protected]
Format settings, BVOP : 3
Format settings, QPel : Yes
Format settings, GMC : 3 warppoints
Format settings, Matrix : Default (H.263)
Codec ID :
Codec ID/Hint :
Duration : 28mn 15s
Bit rate : 1 998 Kbps
Width : 720 pixels
Height : 400 pixels
Display aspect ratio : 16:9
Frame rate : 25.000 fps
Color space : YUV
Chroma subsampling : 4:2:0
Bit depth : 8 bits
Scan type : Progressive
Compression mode : Lossy
Bits/(Pixel*Frame) : 0.277
Stream size : 404 MiB (83%)
Writing library : 1.2.1 (UTC 2008-12-04)

Audio #1
ID : 1
Format : AC-3
Format/Info : Audio Coding 3
Mode extension : CM (complete main)
Format settings, Endianness : Big
Codec ID : 2000
Duration : 28mn 15s
Bit rate mode : Constant
Bit rate : 192 Kbps
Channel(s) : 2 channels
Channel positions : Front: L R
Sampling rate : 48.0 KHz
Bit depth : 16 bits
Compression mode : Lossy
Stream size : 38.8 MiB (8%)
Alignment : Split accross interleaves
Interleave, duration : 40 ms (1.00 video frame)
Interleave, preload duration : 500 ms
Title : ukr

Audio #2
ID : 2
Format : AC-3
Format/Info : Audio Coding 3
Mode extension : CM (complete main)
Format settings, Endianness : Big
Codec ID : 2000
Duration : 28mn 15s
Bit rate mode : Constant
Bit rate : 192 Kbps
Channel(s) : 2 channels
Channel positions : Front: L R
Sampling rate : 48.0 KHz
Bit depth : 16 bits
Compression mode : Lossy
Stream size : 38.8 MiB (8%)
Alignment : Split accross interleaves
Interleave, duration : 40 ms (1.00 video frame)
Interleave, preload duration : 500 ms
Title : eng
Скріншоти




Джерело:
Особиста оцінка: 10 - без зайвих вагань рекомендую всім!


Бронзовий реліз (на рейтинг впливає 75% завантаженого)
 Трекер:    Зареєстрований   

Завантажити торрент



відео для новачків



 Зареєстрований:   2013-11-30 12:52
 Розмір:   2.91 GB 
 Оцінка:   9.6/10 (Голосів: 36)
   
AngryBirdsUA 
Свій


З нами з: 24.02.10
Востаннє: 22.01.17
Повідомлень: 2932

2013-11-30 13:08  
я якраз теж закінчив.
зробили одну роботу двічі.

Кіндрат Книш 
VIP


З нами з: 13.02.13
Востаннє: 21.01.17
Повідомлень: 721

2013-11-30 13:15  
Я здогадувався, що такий серіальчик не омине увагою іще хтось Happy
У вас, мабуть, ?

AngryBirdsUA 
Свій


З нами з: 24.02.10
Востаннє: 22.01.17
Повідомлень: 2932

2013-11-30 14:25  
Кіндрат Книш написано:
У вас, мабуть, ?

тобто сатріп?

Кіндрат Книш 
VIP


З нами з: 13.02.13
Востаннє: 21.01.17
Повідомлень: 721

2013-11-30 15:18  
Vasua95
Та я вже побачив, що ваш на 720р.
Так навіть краще, буде два різних релізи на толоці. Демократія Wide grin

pseudogiant 
VIP


З нами з: 24.08.12
Востаннє: 22.01.17
Повідомлень: 806

2015-03-08 13:01  
Дякую за дуже цікавий і пізнавальний серіал.

Додано через 56 секунд:
Скелет трицератопса (фото)


Purdun 
Свій


З нами з: 05.09.13
Востаннє: 29.08.16
Повідомлень: 82

2015-05-28 01:00  
Йоханий дід, такий док і ще й на укр мові, крутяк, а то старі Прогулянки з динозаврами давно вже не пруть, так як є багато нових відкриттів щодо динозаврів.
MrRyanCooper 
VIP


З нами з: 23.08.12
Востаннє: 19.01.17
Повідомлень: 294

2016-05-14 19:22  
Дякую, тільки що це за avi-шник такий, в мене смартфон за чотири роки ніразу не лаявся на avi-шники, а тут пише, що файл пошкоджено або не підтримується формат, на компі все ОК, дивина та й годі.
А стосовно самого перекладу - трохи туплять перекладачі - подивився лише першу серію, а вже кіпа лагів: хижака Кархародонта віднесли до роду Уранозаврів(травоїдів), хоча треба до Аллозаврів, чується ж за кадром англ. мова та й на картинкі писано Allosaurus. А ще коли билися Спінозавр з Кархародонтом, то сказали, що виграв Кархародонт, хоча навпаки, ну і англ. за кадром каже геть інше. Ну дають перекладачі.

Кіндрат Книш 
VIP


З нами з: 13.02.13
Востаннє: 21.01.17
Повідомлень: 721

2016-05-15 22:35  
MrRyanCooper, та звичайний avi, мій двд-плеєр відтворював без проблем.
Ваш часовий пояс: GMT + 2 Години

Нова тема   Відповісти