Завантажити та скачати торренти українською


Зоряний пил / Stardust (2007) 720p Ukr/Eng | sub Multi

Нові коментарі

Нова тема   Відповісти
Автор Повідомлення
NeetScrool 
Відео Гуртом - фільмокрай
Відео Гуртом - фільмокрай


З нами з: 10.01.13
Востаннє: 03.12.16
Повідомлень: 2206

2013-11-30 08:24  
Зоряний пил / Stardust (2007) 720p Ukr/Eng | sub Multi

Зоряний пил / Stardust (2007) 720p Ukr/Eng | sub Multi


Жанр: фентезі, мелодрама, пригоди, сімейний
Країна: Велика Британія, США, Ісландія



Кінокомпанія: Paramount Pictures, Marv Films ,Di Bonaventura Pictures
Режисер: Меттью Вон
Актори: Чарлі Кокс, Клер Дейнс, Роберт Де Ніро, Мішель Пфайффер, Пітер О’Тул, Сієнна Міллер, Джейсон Флемінг, Сара Александр, Руперт Еверет, Натаніель Паркер, Марк Стронг, Марк Хіп, Адам Бакстон, Джуліан Райнд-Татт, Девід Валльямс, Кейт Магован, Іен Маккеллен

Сюжет:
Дуже нетиповий зразок фентезі, якщо можна його так назвати. Швидше його слід визнати казкою для дорослих або навіть казкою з елементами для дорослих. Вдале втілення казки-феєрії з любовною історією, в якій окрім традиційоного набору сліз горя, печалі, а потім щастя та радості, присутня ще гарна доля веселенького гуморця.

Центральне сюжетне ядро – юнак шукає своє кохання – дійсно казкове, але пов’язане з питаннями дорослішання, позбавлення ілюзій, вміння постояти за себе і відстояти своє щастя. Вистачає елементів пародійних, які ще більш віддаляють стрічку від казки звичайної – це й мудрий король О’Тул (навіть якби серед запрошених зірок він був один, заради його крихітної ролі це було б варто дивитись), який із надзвичайним задоволенням спостерігає за битвою за трон своїх синів, що жадають влади, і певні деталі спроб відьми втримати молодість за будь-яку ціну, і, звичайно ж, капітан повітряних піратів (у виконанні неперевершеного Роберта Де Ніро).


Тривалість: 02:07:41
Якість:
Відео:
кодек:
розмір кадру: 1280 х 532
бітрейт: 5781 кб/с

Аудіо # 1:
мова: українська
переклад: професійний дубльований
кодек: 5.1
бітрейт: 448 кб/с

Аудіо # 2:
мова: англійська
переклад: оригінал
кодек: 5.1
бітрейт: 448 кб/с

Джерело озвучення:


Субтитри:
мова: Російська х2/Українська/Англійська/Чеська/Голландська/Данська/Фінська/Французька/Угорська/Іспанська/Шведська
тип: програмні (м'які)
формат: *.ass
MediaInfo
General
Unique ID : 217767960752930492785018008586496303167 (0xA3D4956A5CF0BC1CA48D20055028E03F)
Complete name : D:\Фільми\Stardust (2007) 720p.mkv
Format : Matroska
Format version : Version 4 / Version 2
File size : 5.96 GiB
Duration : 2h 7mn
Overall bit rate : 6 681 Kbps
Movie name : Зоряний пил / Stardust (2007) 720p
Encoded date : UTC 2013-11-29 22:57:51
Writing application : mkvmerge v6.5.0 ('Isn't she lovely') built on Oct 20 2013 12:50:05
Writing library : libebml v1.3.0 + libmatroska v1.4.1
Attachment : Yes / Yes / Yes / Yes

Video
ID : 1
Format : AVC
Format/Info : Advanced Video Codec
Format profile : [email protected]
Format settings, CABAC : Yes
Format settings, ReFrames : 8 frames
Codec ID : V_MPEG4/ISO/AVC
Duration : 2h 7mn
Bit rate : 5 781 Kbps
Width : 1 280 pixels
Height : 532 pixels
Display aspect ratio : 2.40:1
Frame rate mode : Constant
Frame rate : 23.976 fps
Color space : YUV
Chroma subsampling : 4:2:0
Bit depth : 8 bits
Scan type : Progressive
Bits/(Pixel*Frame) : 0.354
Stream size : 5.04 GiB (85%)
Title :
Writing library : core 84 r1416 fcf70c2
Encoding settings : cabac=1 / ref=8 / deblock=1:-3:-3 / analyse=0x3:0x113 / me=tesa / subme=10 / psy=1 / psy_rd=1.0:0.0 / mixed_ref=1 / me_range=64 / chroma_me=1 / trellis=2 / 8x8dct=1 / cqm=0 / deadzone=21,11 / fast_pskip=0 / chroma_qp_offset=-2 / threads=6 / sliced_threads=0 / nr=0 / decimate=0 / mbaff=0 / constrained_intra=0 / bframes=6 / b_pyramid=2 / b_adapt=2 / b_bias=0 / direct=3 / wpredb=1 / wpredp=2 / keyint=250 / keyint_min=25 / scenecut=40 / intra_refresh=0 / rc=2pass / mbtree=0 / bitrate=5781 / ratetol=1.0 / qcomp=0.60 / qpmin=10 / qpmax=51 / qpstep=4 / cplxblur=20.0 / qblur=0.5 / ip_ratio=1.40 / pb_ratio=1.30 / aq=1:0.80
Language : English
Default : Yes
Forced : No

Audio #1
ID : 2
Format : AC-3
Format/Info : Audio Coding 3
Mode extension : CM (complete main)
Format settings, Endianness : Big
Codec ID : A_AC3
Duration : 2h 7mn
Bit rate mode : Constant
Bit rate : 448 Kbps
Channel count : 6 channels
Channel positions : Front: L C R, Side: L R, LFE
Sampling rate : 48.0 KHz
Bit depth : 16 bits
Compression mode : Lossy
Stream size : 409 MiB (7%)
Title : Дубляж
Language : Ukrainian
Default : Yes
Forced : No

Audio #2
ID : 3
Format : AC-3
Format/Info : Audio Coding 3
Mode extension : CM (complete main)
Format settings, Endianness : Big
Codec ID : A_AC3
Duration : 2h 7mn
Bit rate mode : Constant
Bit rate : 448 Kbps
Channel count : 6 channels
Channel positions : Front: L C R, Side: L R, LFE
Sampling rate : 48.0 KHz
Bit depth : 16 bits
Compression mode : Lossy
Stream size : 409 MiB (7%)
Title : Оригінал
Language : English
Default : No
Forced : No

Text #1
ID : 4
Format : UTF-8
Codec ID : S_TEXT/UTF8
Codec ID/Info : UTF-8 Plain Text
Title : Kinomania
Language : Russian
Default : No
Forced : No

Text #2
ID : 5
Format : UTF-8
Codec ID : S_TEXT/UTF8
Codec ID/Info : UTF-8 Plain Text
Title : R5
Language : Russian
Default : No
Forced : No

Text #3
ID : 6
Format : UTF-8
Codec ID : S_TEXT/UTF8
Codec ID/Info : UTF-8 Plain Text
Title : DVD R5
Language : Ukrainian
Default : No
Forced : No

Text #4
ID : 7
Format : UTF-8
Codec ID : S_TEXT/UTF8
Codec ID/Info : UTF-8 Plain Text
Language : English
Default : No
Forced : No

Text #5
ID : 8
Format : UTF-8
Codec ID : S_TEXT/UTF8
Codec ID/Info : UTF-8 Plain Text
Language : Dutch
Default : No
Forced : No

Text #6
ID : 9
Format : ASS
Codec ID : S_TEXT/ASS
Codec ID/Info : Advanced Sub Station Alpha
Compression mode : Lossless
Language : Czech
Default : No
Forced : No

Text #7
ID : 10
Format : ASS
Codec ID : S_TEXT/ASS
Codec ID/Info : Advanced Sub Station Alpha
Compression mode : Lossless
Language : Danish
Default : No
Forced : No

Text #8
ID : 11
Format : ASS
Codec ID : S_TEXT/ASS
Codec ID/Info : Advanced Sub Station Alpha
Compression mode : Lossless
Language : Finnish
Default : No
Forced : No

Text #9
ID : 12
Format : ASS
Codec ID : S_TEXT/ASS
Codec ID/Info : Advanced Sub Station Alpha
Compression mode : Lossless
Language : French
Default : No
Forced : No

Text #10
ID : 13
Format : ASS
Codec ID : S_TEXT/ASS
Codec ID/Info : Advanced Sub Station Alpha
Compression mode : Lossless
Language : Hungarian
Default : No
Forced : No

Text #11
ID : 14
Format : ASS
Codec ID : S_TEXT/ASS
Codec ID/Info : Advanced Sub Station Alpha
Compression mode : Lossless
Language : Spanish
Default : No
Forced : No

Text #12
ID : 15
Format : ASS
Codec ID : S_TEXT/ASS
Codec ID/Info : Advanced Sub Station Alpha
Compression mode : Lossless
Language : Swedish
Default : No
Forced : No
Скріншоти








Джерело: &
Особиста оцінка: 0 - не дивився


 Трекер:    Зареєстрований   

Завантажити / скачати фільм українською



відео для новачків



 Зареєстрований:   2013-11-30 08:24
 Розмір:   5.96 GB 
 Оцінка фільму:   8.9/10 (Голосів: 18)
   
Інші релізи
   Зоряний пил / Stardust (2007) 2xUkr/Eng patriot2305  10 / 2   2.75 GB   2014-01-18 00:24 
   Зоряний пил / Stardust (2007) patriot2305  3 / 0   1.63 GB   2013-12-06 20:51 
   Зоряний пил / Stardust (2007) AVC Drool  2 / 0   1.87 GB   2013-05-11 16:32 
   Зоряний Пил / Stardust (2007) 1080p Ukr | Sub Ukr/Eng Tenax555  5 / 0   8.57 GB   2009-08-29 10:41 
patriot2305 
Почесний гуртомівець


З нами з: 23.04.11
Востаннє: 03.12.16
Повідомлень: 4145

2013-11-30 08:44  
Джерело озвучення бо на БД я щось нашої доріжки не бачив, а зважаючи на те ,що тут Paramount Pictures її там точно немає
Ваш часовий пояс: GMT + 2 Години

Нова тема   Відповісти